.
Авторизация | Регистрация
» » Кунг Фьюри / Kung Fury (2015) WEB-DLRip-AVC | Володарский скачать торрент бесплатно




    Кунг Фьюри / Kung Fury (2015) WEB-DLRip-AVC | Володарский скачать торрент бесплатно

    Опубликовал: Админ | Дата: 10-06-2015, 12:58 | Просмотров: 144




    Русское название: Кунг Фьюри
    Русское название в мировом прокате: Kung Fury
    Создали в: 2015
    Категория жанра: Короткометражный, фантастика, фэнтези, боевик, комедия
    Снималось в: Швеция, Lampray, Laser Unicorn, Salmon Fox
    Время просмотра: 00: 30: 20
    Перевод текста: Авторский (одноголосый, закадровый) Л.Володарский
    Субтитры: Отсутствуют
    Главный режиссер: Дэвид Сандберг

    Актеры
    Дэвид Сандберг, Леопольд Нильссон, Стивен Чю, Андреас Кахлинг, Эрик Хёрнквист, Элени Янг, Хелен Алсон, Пер-Хенрик Арвидус, Эос Карлссон, Дэвид Хассельхофф

    Сюжет фильма

    В Майами 80-х появляется самый опасный преступник всех времен — Адольф Гитлер, по прозвищу Кунг Фюрер. Суперкоп Кунг Фьюри решает совершить путешествие во времени в нацистскую Германию, чтобы убить Гитлера и положить конец нацистской империи.
    Качество фильма: WEB-DLRip-AVC
    Информация о видео: AVC, 1024x576 (16: 9), 25.000 fps, 3 095 Kbps (0.210 bit/pixel)
    Информация о звуке: AC-3, 48.0 KHz, 2 ch, 192 Kbps, CBR (Russian)
    Сэмпл
    Релиз подготовил: FAGOT100
    MediaInfo:
    Формат : Matroska
    Версия формата : Version 2
    Размер файла : 728 Мбайт
    Продолжительность : 30 м.
    Общий поток : 3354 Кбит/сек
    Дата кодирования : UTC 2015-06-09 18: 59: 23
    Программа кодирования : mkvmerge v5.3.0 (;I could have danced;) built on Feb 9 2012 10: 38: 07
    Библиотека кодирования : libebml v1.2.3 + libmatroska v1.3.0
    Attachment : Yes
    Видео
    Идентификатор : 1
    Формат : AVC
    Формат/Информация : Advanced Video Codec
    Профиль формата : High@L4.1
    Параметр CABAC формата : Да
    Параметр ReFrames формата : 9 кадров
    Идентификатор кодека : V_MPEG4/ISO/AVC
    Продолжительность : 30 м.
    Битрейт : 3095 Кбит/сек
    Ширина : 1024 пикселя
    Высота : 576 пикселей
    Соотношение сторон : 16: 9
    Режим частоты кадров : Постоянный
    Частота кадров : 25, 000 кадров/сек
    Цветовое пространство : YUV
    Субдискретизация насыщенности : 4: 2: 0
    Битовая глубина : 8 бит
    Тип развёртки : Прогрессивная
    Бит/(Пиксели*Кадры) : 0.210
    Размер потока : 672 Мбайт (92%)
    Библиотека кодирования : x264 core 146 r2538 121396c
    Настройки программы : cabac=1/ref=9/deblock=1: -3: -3/analyse=0x3: 0x133/me=umh/subme=11/psy=1/psy_rd=1.00: 0.00/mixed_ref=1/me_range=32/chroma_me=1/trellis=2/8x8dct=1/cqm=0/deadzone=21, 11/fast_pskip=1/chroma_qp_offset=-2/threads=12/lookahead_threads=1/sliced_threads=0/nr=0/decimate=1/interlaced=0/bluray_compat=0/constrained_intra=0/bframes=6/b_pyramid=2/b_adapt=2/b_bias=0/direct=3/weightb=1/open_gop=0/weightp=2/keyint=250/keyint_min=25/scenecut=40/intra_refresh=0/rc=crf/mbtree=0/crf=17.5/qcomp=0.60/qpmin=0/qpmax=69/qpstep=4/ip_ratio=1.40/pb_ratio=1.30/aq=2: 1.00
    Язык : English
    Default : Да
    Forced : Нет
    Аудио
    Идентификатор : 2
    Формат : AC-3
    Формат/Информация : Audio Coding 3
    Расширение режима : CM (complete main)
    Параметр Endianness формата : Big
    Идентификатор кодека : A_AC3
    Продолжительность : 30 м.
    Вид битрейта : Постоянный
    Битрейт : 192 Кбит/сек
    Каналы : 2 канала
    Расположение каналов : Front: L R
    Частота : 48, 0 КГц
    Битовая глубина : 16 бит
    Метод сжатия : С потерями
    Размер потока : 41, 7 Мбайт (6%)
    Заголовок : Авторский Л.Володарский
    Язык : Russian
    Default : Нет
    Forced : Нет
    Скриншоты




    Онлайн видео Кунг Фьюри


    Размер скачиваемого торрента: 728.07 MB (763439488 Bytes)

    Кунг Фьюри/Kung Fury (2015) WEB-DLRip-AVC | Володарский
    загрузка...
    Рейтинг →
     (голосов: 1, оценка 4/5, голосовать можно 1 раз )

    Другие торренты по теме:

  • Кунг Фьюри / Kung Fury (2015) WEBRip 1080p | Sub скачать торрент бесплатно
  • Кунг Фьюри / Kung Fury (2015) WEB-DLRip | L1 скачать торрент бесплатно
  • Кунг Фьюри / Kung Fury (2015) WEB-DLRip | Ozz скачать торрент бесплатно
  • Кунг Фьюри / Kung Fury (2015) WEB-DL 1080p | P скачать торрент бесплатно
  • Кунг Фьюри / Kung Fury (2015) VHSRip скачать торрент бесплатно
  • Кунг Фьюри / Kung Fury (2015) WEB-DL 1080p L | OMSKBIRD records скачать торрент бесплатно
  • Кунг Фьюри / Kung Fury (2015) WEB-DLRip от Scarabey | Р2 скачать торрент бесплатно
  • Кунг Фьюри / Kung Fury (2015) WEB-DLRip | A скачать торрент бесплатно


    • Комментарии (0):

      Информация

      Информация

        Посетители, находящиеся в группе Гости, не могут оставлять комментарии в данной новости.

        ↓ Меню



        ↓ Опрос

        А Вы добавили сайт в закладки?
        Да
        Не


        Top 10 за неделю (Фильмы)