.
Авторизация | Регистрация
Хочешь лучшие торренты? Добавь свой email!
Добавить
» » Школа выживания / The Survivors (1983) WEB-DL 720p | A торрент скачать бесплатно




    Школа выживания / The Survivors (1983) WEB-DL 720p | A торрент скачать бесплатно

    Опубликовал: Админ | Дата: 10-06-2015, 15:01 | Просмотров: 118



    Детально о кино
    Русское название: Школа выживания
    Русское название в мировом прокате: The Survivors
    Создали в: 1983
    Категория жанра: драма, комедия
    Главный режиссер: Майкл Ритчи

    Актеры
    Уолтер Мэттау, Робин Уильямс, Скипп Линч, Мэриэн Хэйли, Бернард Бэрроу, Кристен Вигард, Джозеф Карберри, Мег Манди, Джеймс Уэйнрайт, Энни МакЭнрой, Энн Питоняк, Мэрилин Купер, Джерри Рид

    Сюжет фильма

    Дональда, начинающего продавца, грабит попугай босса в тот же самый день, когда сгорает заправка Сонни. Двое неудачников как раз пытались залить горе кофе, когда в кафе ворвался такой же невезучий бандит Джек.
    Несчастным ничего не остается, как обезоружить грабителя, и неожиданно для себя они становятся знаменитыми героями. И тут им предстоит узнать цену выживания в этом сумасшедшем мире. Джек выходит на свободу и отправляется в погоню за Сонни и Дональдом.
    В бегах от психопата-убийцы двое обаятельных неудачников должны пойти настоящую школу выживания.

    Снималось в: США
    Киностудия: Columbia Pictures Corporation, Rastar Films
    Время просмотра: 01: 38: 49
    Перевод текста: Профессиональный (двухголосый закадровый) Видеосервис , Авторский (одноголосый закадровый) Алексей Михалев , оригинал
    Файл
    Кодек для видео: H264
    Качество фильма: WEB-DL 720p
    Информация о видео: 1920x1072 (1, 79: 1) 25 fps, ~5603 kbps avg, 0.109 bit/pixel
    Информация о звуке 1: 48 kHz, AC3 Dolby Digital, 2/0 (L, R) ch, ~192 kbps Видеосервис
    Информация о звуке 2: 48 kHz, AC3 Dolby Digital, 2/0 (L, R) ch, ~192 kbps Михалев
    Информация о звуке 3: 48 kHz, AC3 Dolby Digital, 2/0 (L, R) ch, ~192 kbps Оригинал
    Субтитры: Английские (SRT)
    MediaInfo
    Полное имя : Школа выживания 1983.mkv
    Формат : Matroska
    Версия формата : Version 4/Version 2
    Размер файла : 4, 35 Гбайт
    Продолжительность : 1 ч. 38 м.
    Режим общего битрейта : Переменный
    Общий поток : 6305 Кбит/сек
    Дата кодирования : UTC 2014-09-14 11: 37: 05
    Программа кодирования : mkvmerge v7.1.0 (;Good Love;) 64bit built on Jul 27 2014 13: 06: 55
    Библиотека кодирования : libebml v1.3.0 + libmatroska v1.4.1
    DURATION : 01: 36: 21.149000000
    NUMBER_OF_FRAMES : 1239
    NUMBER_OF_BYTES : 46506
    _STATISTICS_WRITING_APP : mkvmerge v7.1.0 (;Good Love;) 64bit built on Jul 27 2014 13: 06: 55
    _STATISTICS_WRITING_DATE_UTC : 2014-09-14 11: 37: 05
    _STATISTICS_TAGS : BPS DURATION NUMBER_OF_FRAMES NUMBER_OF_BYTES
    Видео
    Идентификатор : 1
    Формат : AVC
    Формат/Информация : Advanced Video Codec
    Профиль формата : Main@L4.0
    Параметр CABAC формата : Да
    Параметр ReFrames формата : 2 кадра
    Идентификатор кодека : V_MPEG4/ISO/AVC
    Продолжительность : 1 ч. 38 м.
    Вид битрейта : Переменный
    Битрейт : 5603 Кбит/сек
    Максимальный битрейт : 768 Кбит/сек
    Ширина : 1920 пикселей
    Высота : 1072 пикселя
    Соотношение сторон : 16: 9
    Режим частоты кадров : Постоянный
    Частота кадров : 25, 000 кадров/сек
    Цветовое пространство : YUV
    Субдискретизация насыщенности : 4: 2: 0
    Битовая глубина : 8 бит
    Тип развёртки : Прогрессивная
    Бит/(Пиксели*Кадры) : 0.109
    Размер потока : 3, 87 Гбайт (89%)
    Default : Да
    Forced : Нет
    Аудио #1
    Идентификатор : 2
    Формат : AC-3
    Формат/Информация : Audio Coding 3
    Расширение режима : CM (complete main)
    Параметр Endianness формата : Big
    Идентификатор кодека : A_AC3
    Продолжительность : 1 ч. 38 м.
    Вид битрейта : Постоянный
    Битрейт : 192 Кбит/сек
    Каналы : 2 канала
    Расположение каналов : Front: L R
    Частота : 48, 0 КГц
    Битовая глубина : 16 бит
    Метод сжатия : С потерями
    Размер потока : 136 Мбайт (3%)
    Заголовок : dvo
    Язык : Russian
    Default : Да
    Forced : Нет
    Аудио #2
    Идентификатор : 3
    Формат : AC-3
    Формат/Информация : Audio Coding 3
    Расширение режима : CM (complete main)
    Параметр Endianness формата : Big
    Идентификатор кодека : A_AC3
    Продолжительность : 1 ч. 38 м.
    Вид битрейта : Постоянный
    Битрейт : 192 Кбит/сек
    Каналы : 2 канала
    Расположение каналов : Front: L R
    Частота : 48, 0 КГц
    Битовая глубина : 16 бит
    Метод сжатия : С потерями
    Размер потока : 136 Мбайт (3%)
    Заголовок : avo
    Язык : Russian
    Default : Нет
    Forced : Нет
    Аудио #3
    Идентификатор : 4
    Формат : AC-3
    Формат/Информация : Audio Coding 3
    Расширение режима : CM (complete main)
    Параметр Endianness формата : Big
    Идентификатор кодека : A_AC3
    Продолжительность : 1 ч. 38 м.
    Вид битрейта : Постоянный
    Битрейт : 192 Кбит/сек
    Каналы : 2 канала
    Расположение каналов : Front: L R
    Частота : 48, 0 КГц
    Битовая глубина : 16 бит
    Метод сжатия : С потерями
    Размер потока : 136 Мбайт (3%)
    Заголовок : org
    Язык : English
    Default : Нет
    Forced : Нет
    Текст
    Идентификатор : 5
    Формат : UTF-8
    Идентификатор кодека : S_TEXT/UTF8
    Идентификатор кодека/Информация : UTF-8 Plain Text
    Язык : English
    Default : Нет
    Forced : Нет
    Скриншоты

    Залил: JIuI3epIIyJIb

    Онлайн видео Школа выживания


    Размер скачиваемого торрента: 4.35 GB (4672743282 Bytes)

    Школа выживания/The Survivors (1983) WEB-DL 720p | A
    загрузка...
    Рейтинг →
     (голосов: 1, оценка 5/5, голосовать можно 1 раз )

    Другие торренты по теме:

  • Школа выживания от одинокой женщины с тремя детьми в условиях кризиса (Школа выживания) (1-10 серии из 150) / 2015 / РУ / WEB-DLRip
  • Школа выживания выпускников / Post Grad (2009) BDRip 1080p
  • Школа выживания / The Survivors (1983) WEB-DLRip | A
  • Школа выживания / The Survivors (1983) WEB-DLRip-AVC | P2
  • Школа выживания / Drillbit Taylor / 2008 / ДБ / BDRip (720p)
  • Школа выживания от одинокой женщины с тремя детьми в условиях кризиса (2015) WEB-DLRip от Files-x
  • Школа выживания от одинокой женщины с тремя детьми в условиях кризиса (2015) WEB-DLRip от Files-x
  • Школа выживания от одинокой женщины с тремя детьми в условиях кризиса (2015) WEB-DLRip-AVC от Files-x


    • Комментарии (0):

      Информация

      Информация

        Посетители, находящиеся в группе Гости, не могут оставлять комментарии в данной новости.

        ↓ Меню



        ↓ Опрос

        А Вы добавили сайт в закладки?
        Да
        Не


        Top 10 за месяц (Фильмы)