.
Авторизация | Регистрация
» » Оно / It Follows (2014) BDRemux 1080p | L2, A скачать торрент бесплатно




    Оно / It Follows (2014) BDRemux 1080p | L2, A скачать торрент бесплатно

    Опубликовал: Админ | Дата: 10-06-2015, 18:01 | Просмотров: 128




    Детально о кино
    Русское название: Оно/Оно следует за тобой
    Русское название в мировом прокате: It Follows
    Создали в: 2014
    Категория жанра: ужасы, детектив
    Главный режиссер: Дэвид Роберт Митчелл

    Актеры
    Кейр Гилкрист, Carollette Phillips, Лорен Басс, Оливия Луккарди, Лили Сепе, Майка Монро, Джейк Вири, Дэниэл Дзоватто, Чарльз Гертнер, Бэйли Спрай


    Сюжет фильма
    После сексуальной связи 19-летнюю девушку по имени Джей начинают мучать странные видения и непреодолимое чувство того, что кто-то или что-то за ней следит…



    Снималось в: США/Northern Lights Films, Animal Kingdom, Two Flints
    Время просмотра: 01: 40: 13
    Перевод текста: Любительский (двухголосый, закадровый)- Киностудия Пиратского дубляжа
    Авторский (одноголосый, закадровый)- А. Матвеев

    Файл
    Качество фильма: BDRemux 1080p
    Тип видео: MKV
    Информация о видео: MPEG4/AVC, 28.1 Мбит/сек, 1920х1080 (16: 9), 23.976 кадра/сек
    Информация о звуке 1: AC3, 6 каналов, 448 Кбит/сек | Русский - Студия Пиратского дубляжа
    Информация о звуке 2: AC3, 6 каналов, 448 Кбит/сек | Русский - А. Матвеев
    Информация о звуке 3: DTS-HD MA, 6 каналов, 2395/1509 Кбит/сек | Русский - А. Матвеев
    Информация о звуке 4: DTS-HD MA, 6 каналов, 2062/1509 Кбит/сек | Английский
    Субтитры: Русские (А. Матвеев), английские
    Навигация по главам: Есть

    MediaInfo:
    Общее
    Уникальный идентификатор : 254618565822297708957963993064277014132 (0xBF8DC08521659D96827690AE0E7FF674)
    Полное имя : It Follows. (2014) BDRemux 1080p.mkv
    Формат : Matroska
    Версия формата : Version 2
    Размер файла : 23, 9 Гбайт
    Продолжительность : 1 ч. 40 м.
    Режим общего битрейта : Переменный
    Общий поток : 34, 1 Мбит/сек
    Название фильма : It Follows. 2014
    Дата кодирования : UTC 2015-06-10 10: 00: 06
    Программа кодирования : mkvmerge v5.8.0 (;No Sleep/Pillow;) built on Sep 2 2012 15: 37: 04
    Библиотека кодирования : libebml v1.2.3 + libmatroska v1.3.0

    Видео
    Идентификатор : 1
    Формат : AVC
    Формат/Информация : Advanced Video Codec
    Профиль формата : High@L4.1
    Параметр CABAC формата : Да
    Параметр ReFrames формата : 4 кадра
    Идентификатор кодека : V_MPEG4/ISO/AVC
    Продолжительность : 1 ч. 40 м.
    Вид битрейта : Переменный
    Максимальный битрейт : 35, 0 Мбит/сек
    Ширина : 1920 пикселей
    Высота : 1080 пикселей
    Соотношение сторон : 16: 9
    Режим частоты кадров : Постоянный
    Частота кадров : 23, 976 кадра/сек
    Стандарт вещания : NTSC
    Цветовое пространство : YUV
    Субдискретизация насыщенности : 4: 2: 0
    Битовая глубина : 8 бит
    Тип развёртки : Прогрессивная
    Заголовок : RARBG
    Язык : English
    Default : Да
    Forced : Нет
    Основные цвета : BT.709
    Характеристики трансфера : BT.709
    Коэффициенты матрицы : BT.709

    Аудио #1
    Идентификатор : 2
    Формат : AC-3
    Формат/Информация : Audio Coding 3
    Расширение режима : CM (complete main)
    Параметр Endianness формата : Big
    Идентификатор кодека : A_AC3
    Продолжительность : 1 ч. 40 м.
    Вид битрейта : Постоянный
    Битрейт : 448 Кбит/сек
    Каналы : 6 каналов
    Расположение каналов : Front: L C R, Side: L R, LFE
    Частота : 48, 0 КГц
    Битовая глубина : 16 бит
    Метод сжатия : С потерями
    Размер потока : 321 Мбайт (1%)
    Заголовок : L2 | Студия Пиратского дубляжа
    Язык : Russian
    Default : Да
    Forced : Нет

    Аудио #2
    Идентификатор : 3
    Формат : AC-3
    Формат/Информация : Audio Coding 3
    Расширение режима : CM (complete main)
    Параметр Endianness формата : Big
    Идентификатор кодека : A_AC3
    Продолжительность : 1 ч. 40 м.
    Вид битрейта : Постоянный
    Битрейт : 448 Кбит/сек
    Каналы : 6 каналов
    Расположение каналов : Front: L C R, Side: L R, LFE
    Частота : 48, 0 КГц
    Битовая глубина : 16 бит
    Метод сжатия : С потерями
    Задержка видео : 125 мс.
    Размер потока : 321 Мбайт (1%)
    Заголовок : A | А. Матвеева
    Язык : Russian
    Default : Нет
    Forced : Нет

    Аудио #3
    Идентификатор : 4
    Формат : DTS
    Формат/Информация : Digital Theater Systems
    Профиль формата : MA/Core
    Режим : 16
    Параметр Endianness формата : Big
    Идентификатор кодека : A_DTS
    Продолжительность : 1 ч. 40 м.
    Вид битрейта : Переменный
    Битрейт : 2395/1509 Кбит/сек
    Каналы : 6 каналов
    Расположение каналов : Front: L C R, Side: L R, LFE
    Частота : 48, 0 КГц
    Битовая глубина : 24 бит
    Метод сжатия : Без потерь/Lossy
    Заголовок : A | DTS-HD MA | А. Матвеев
    Язык : Russian
    Default : Нет
    Forced : Нет

    Аудио #4
    Идентификатор : 5
    Формат : DTS
    Формат/Информация : Digital Theater Systems
    Профиль формата : MA/Core
    Режим : 16
    Параметр Endianness формата : Big
    Идентификатор кодека : A_DTS
    Продолжительность : 1 ч. 40 м.
    Вид битрейта : Переменный
    Битрейт : 2062/1509 Кбит/сек
    Каналы : 6 каналов
    Расположение каналов : Front: L C R, Side: L R, LFE
    Частота : 48, 0 КГц
    Битовая глубина : 24 бит
    Метод сжатия : Без потерь/Lossy
    Заголовок : Original | DTS-HD MA
    Язык : English
    Default : Нет
    Forced : Нет

    Текст #1
    Идентификатор : 6
    Формат : UTF-8
    Идентификатор кодека : S_TEXT/UTF8
    Идентификатор кодека/Информация : UTF-8 Plain Text
    Заголовок : Full
    Язык : Russian
    Default : Нет
    Forced : Нет

    Текст #2
    Идентификатор : 7
    Формат : UTF-8
    Идентификатор кодека : S_TEXT/UTF8
    Идентификатор кодека/Информация : UTF-8 Plain Text
    Заголовок : Full
    Язык : English
    Default : Нет
    Forced : Нет

    Меню
    00: 00: 00.000 : en: Chapter 01
    00: 03: 53.024 : en: Chapter 02
    00: 08: 46.901 : en: Chapter 03
    00: 13: 58.671 : en: Chapter 04
    00: 22: 05.115 : en: Chapter 05
    00: 27: 20.930 : en: Chapter 06
    00: 32: 12.513 : en: Chapter 07
    00: 44: 38.467 : en: Chapter 08
    00: 49: 14.993 : en: Chapter 09
    00: 53: 58.485 : en: Chapter 10
    01: 02: 48.055 : en: Chapter 11
    01: 07: 45.019 : en: Chapter 12
    01: 16: 13.485 : en: Chapter 13
    01: 26: 19.007 : en: Chapter 14
    01: 31: 18.514 : en: Chapter 15
    01: 35: 42.194 : en: Chapter 16



    Релиз подготовил:
    Размер скачиваемого торрента: 23.90 GB (25666670850 Bytes)

    Оно/It Follows (2014) BDRemux 1080p | L2, A
    загрузка...
    Рейтинг →
     (голосов: 1, оценка 5/5, голосовать можно 1 раз )

    Другие торренты по теме:

  • Они / Ils (2006) BDRip-AVC торрент скачать бесплатно
  • Он и Она / Him Her (2012) HDTVRip торрент скачать бесплатно
  • Если любить... как они / If in love... like them / Perhaps Love / A Special Promise (2007) TVRip-AVC от BTT-TEAM и AniFilm торрент скачать бесплатно
  • Она и Её Кот / She and Her Cat / She and Her Cat / Kanojo to Kanojo no neko (1999) BDRip от Мифоград | L2 торрент скачать бесплатно
  • Они Слышат / Blood Creek (2006) DVDRip торрент скачать бесплатно
  • Они были солдатами 2 / Saints and Soldiers: Airborne Creed (2012) BDRip 720p | НТВ торрент скачать бесплатно
  • Иногда они возвращаются / Sometimes They Come Back (1991) HDTVRip | P2 торрент скачать бесплатно
  • Убийственный холод / Иногда они возвращаются снова и снова / Sometimes They Come Back... for More (1998) DVDRip | P торрент скачать бесплатно


    • Комментарии (0):

      Информация

      Информация

        Посетители, находящиеся в группе Гости, не могут оставлять комментарии в данной новости.

        ↓ Меню



        ↓ Опрос

        А Вы добавили сайт в закладки?
        Да
        Не


        Top 10 за неделю (Фильмы)