.
Авторизация | Регистрация
» » Сладкая жизнь / La dolce vita (1960) BDRip 720p скачать торрент бесплатно




    Сладкая жизнь / La dolce vita (1960) BDRip 720p скачать торрент бесплатно

    Опубликовал: Админ | Дата: 10-06-2015, 18:02 | Просмотров: 142



    Детально о кино
    Русское название: Сладкая жизнь
    Русское название в мировом прокате: La dolce vita
    Создали в: 1960
    Категория жанра: драма, комедия
    Главный режиссер: Федерико Феллини

    Актеры
    Марчелло Мастроянни, Анита Экберг, Адриано Челентано, Анук Эме, Ивонн Фюрно, Магали Ноэль, Ален Кюни, Аннибале Нинки, Надя Грей, Лекс Баркер, Вальтер Сантессо

    Сюжет фильма

    Журналист Марчелло — наблюдатель и участник всех эпизодов жизни итальянской элиты конца 50-х годов. Женщины как тени сменяют друг друга, не задевая его чувств, даже явление американской кинодивы Сильвии, воплощения сексуальности и порока, не выводит его из ступора…

    Снималось в: Италия, Франция
    Время просмотра: 02: 55: 46
    Перевод текста 1: Профессиональный (многоголосый закадровый) SomeWax
    Перевод текста 2: Профессиональный (многоголосый закадровый) Культура
    Перевод текста 3: Профессиональный (двухголосый закадровый) R5
    Файл
    Кодек для видео: x264
    Качество фильма: BDRip 720p
    Информация о видео: 1280x544 (2.353), 23.976 fps, 6 931 kbps, 0.415 bit/pixel
    Информация о звуке 1: 48 kHz, AC3, 2.0 ch, 192 kbps (MVO, SomeWax)
    Информация о звуке 2: 48 kHz, AC3, 2.0 ch, 192 kbps (MVO, Культура)
    Информация о звуке 3: 48 kHz, AC3, 2.0 ch, 192 kbps (DVO, R5)
    Информация о звуке 4: FLAC, 48.0 KHz, 1 channel, 595 Kbps (Оригинал)
    Субтитры: русские (2 вида), английские
    Скриншоты

    MediaInfo
    General
    Unique ID : 194881169645631166921328767890000681973 (0x929CBF7E5ADBB120B9C01DA5A28F9BF5)
    Complete name : C: La.Dolce.Vita.Federico.Fellini.1960.Criterion.bdrip.720p.mkv
    Format : Matroska
    Format version : Version 4/Version 2
    File size : 10.1 GiB
    Duration : 2h 55mn
    Overall bit rate mode : Variable
    Overall bit rate : 8 244 Kbps
    Movie name : Сладкая жизнь/La Dolce Vita (Федерико Феллини, 1960) egiko;z bdrip
    Encoded date : UTC 2014-10-30 05: 37: 49
    Writing application : mkvmerge v7.3.0 (;Nouages;) 64bit built on Oct 22 2014 18: 53: 34
    Writing library : libebml v1.3.0 + libmatroska v1.4.1
    Attachements : cover.jpg
    DURATION : 02: 55: 46.090000000
    NUMBER_OF_FRAMES : 123587
    NUMBER_OF_BYTES : 784668591
    _STATISTICS_WRITING_APP : mkvmerge v7.3.0 (;Nouages;) 64bit built on Oct 22 2014 18: 53: 34
    _STATISTICS_WRITING_DATE_UTC : 2014-10-30 05: 37: 49
    _STATISTICS_TAGS : BPS DURATION NUMBER_OF_FRAMES NUMBER_OF_BYTES
    Video
    ID : 1
    Format : AVC
    Format/Info : Advanced Video Codec
    Format profile : High@L4.1
    Format settings, CABAC : Yes
    Format settings, ReFrames : 12 frames
    Codec ID : V_MPEG4/ISO/AVC
    Duration : 2h 55mn
    Width : 1 280 pixels
    Height : 544 pixels
    Display aspect ratio : 2.35: 1
    Frame rate mode : Constant
    Frame rate : 23.976 fps
    Color space : YUV
    Chroma subsampling : 4: 2: 0
    Bit depth : 8 bits
    Scan type : Progressive
    Title : Сладкая жизнь/La Dolce Vita
    Writing library : x264 core 142 r2479kMod dd79a61
    Encoding settings : cabac=1/ref=12/deblock=1: -3: -3/analyse=0x3: 0x133/me=umh/subme=10/psy=1/fade_compensate=0.00/psy_rd=1.00: 0.15/mixed_ref=1/me_range=32/chroma_me=1/trellis=2/8x8dct=1/cqm=0/deadzone=21, 11/fast_pskip=0/chroma_qp_offset=-3/threads=6/lookahead_threads=1/sliced_threads=0/nr=0/decimate=1/interlaced=0/bluray_compat=0/constrained_intra=0/fgo=0/bframes=12/b_pyramid=2/b_adapt=2/b_bias=0/direct=3/weightb=1/open_gop=0/weightp=2/keyint=240/keyint_min=23/scenecut=40/intra_refresh=0/rc_lookahead=60/rc=crf/mbtree=0/crf=16.0000/qcomp=0.60/qpmin=0/qpmax=69/qpstep=4/vbv_maxrate=62500/vbv_bufsize=78125/crf_max=0.0/nal_hrd=none/filler=0/ip_ratio=1.40/pb_ratio=1.30/aq=1: 1.00
    Language : Italian
    Default : Yes
    Forced : No
    DURATION : 02: 55: 46.119000000
    NUMBER_OF_FRAMES : 252854
    NUMBER_OF_BYTES : 9320023753
    _STATISTICS_WRITING_APP : mkvmerge v7.3.0 (;Nouages;) 64bit built on Oct 22 2014 18: 53: 34
    _STATISTICS_WRITING_DATE_UTC : 2014-10-30 05: 37: 49
    _STATISTICS_TAGS : BPS DURATION NUMBER_OF_FRAMES NUMBER_OF_BYTES
    Audio #1
    ID : 2
    Format : AC-3
    Format/Info : Audio Coding 3
    Mode extension : CM (complete main)
    Format settings, Endianness : Big
    Codec ID : A_AC3
    Duration : 2h 55mn
    Bit rate mode : Constant
    Bit rate : 192 Kbps
    Channel(s) : 2 channels
    Channel positions : Front: L R
    Sampling rate : 48.0 KHz
    Bit depth : 16 bits
    Compression mode : Lossy
    Stream size : 241 MiB (2%)
    Title : MVO, SomeWax
    Language : Russian
    Default : Yes
    Forced : No
    Audio #2
    ID : 3
    Format : AC-3
    Format/Info : Audio Coding 3
    Mode extension : CM (complete main)
    Format settings, Endianness : Big
    Codec ID : A_AC3
    Duration : 2h 55mn
    Bit rate mode : Constant
    Bit rate : 192 Kbps
    Channel(s) : 2 channels
    Channel positions : Front: L R
    Sampling rate : 48.0 KHz
    Bit depth : 16 bits
    Compression mode : Lossy
    Stream size : 241 MiB (2%)
    Title : MVO, Культура
    Language : Russian
    Default : No
    Forced : No
    Audio #3
    ID : 4
    Format : AC-3
    Format/Info : Audio Coding 3
    Mode extension : CM (complete main)
    Format settings, Endianness : Big
    Codec ID : A_AC3
    Duration : 2h 55mn
    Bit rate mode : Constant
    Bit rate : 192 Kbps
    Channel(s) : 2 channels
    Channel positions : Front: L R
    Sampling rate : 48.0 KHz
    Bit depth : 16 bits
    Compression mode : Lossy
    Stream size : 241 MiB (2%)
    Title : DVO, R5
    Language : Russian
    Default : No
    Forced : No
    Audio #4
    ID : 5
    Format : FLAC
    Format/Info : Free Lossless Audio Codec
    Codec ID : A_FLAC
    Duration : 2h 55mn
    Bit rate mode : Variable
    Channel(s) : 1 channel
    Sampling rate : 48.0 KHz
    Bit depth : 24 bits
    Title : Оригинал
    Writing library : libFLAC 1.2.1 (UTC 2007-09-17)
    Language : Italian
    Default : No
    Forced : No
    Text #1
    ID : 6
    Format : UTF-8
    Codec ID : S_TEXT/UTF8
    Codec ID/Info : UTF-8 Plain Text
    Language : Russian
    Default : No
    Forced : No
    Text #2
    ID : 7
    Format : UTF-8
    Codec ID : S_TEXT/UTF8
    Codec ID/Info : UTF-8 Plain Text
    Language : Russian
    Default : No
    Forced : No
    Text #3
    ID : 8
    Format : UTF-8
    Codec ID : S_TEXT/UTF8
    Codec ID/Info : UTF-8 Plain Text
    Language : English
    Default : No
    Forced : No
    Menu
    00: 00: 00.000 : : 1.Opening credits
    00: 03: 19.782 : : 2.Prologue: Christ over Rome
    00: 06: 17.335 : : 3.Maddalena
    00: 11: 06.207 : : 4.Meeting Ninni
    00: 15: 45.444 : : 5.Cessati Spiriti
    00: 20: 13.420 : : 6.Emma
    00: 24: 50.697 : : 7.Sylvia
    00: 32: 13.264 : : 8.Frankie Stout, a divine actor
    00: 45: 11.583 : : 9.The streets and fountains of Rome
    00: 55: 20.900 : : 10.Steiner
    00: 59: 20.306 : : 11.The miracle
    01: 06: 02.416 : : 12.A huge crowd has gathered...
    01: 16: 01.139 : : 13.Steiner;s party
    01: 30: 28.005 : : 14.Paola
    01: 33: 52.043 : : 15.Marcello;s father
    01: 39: 01.310 : : 16.The Cha-Cha
    01: 50: 48.892 : : 17.I have to leave
    01: 57: 48.644 : : 18.Bassano di Sutri
    02: 06: 02.388 : : 19.Maddalena, do you hear me?
    02: 09: 40.731 : : 20.Coming to hunt ghosts
    02: 19: 00.915 : : 21.Why do you treat me this way?
    02: 24: 15.647 : : 22.Steiner;s tragedy
    02: 32: 00.611 : : 23.Nadia;s party
    02: 50: 03.776 : : 24.A monster from the sea
    02: 55: 08.289 : : 25.End credits


    Онлайн видео Сладкая жизнь


    Размер скачиваемого торрента: 10.12 GB (10868210439 Bytes)

    Сладкая жизнь/La dolce vita (1960) BDRip 720p
    загрузка...
    Рейтинг →
     (голосов: 1, оценка 4/5, голосовать можно 1 раз )

    Другие торренты по теме:



      Комментарии (0):

      Информация

      Информация

        Посетители, находящиеся в группе Гости, не могут оставлять комментарии в данной новости.

        ↓ Меню



        ↓ Опрос

        А Вы добавили сайт в закладки?
        Да
        Не


        Top 10 за неделю (Фильмы)