.
Авторизация | Регистрация
» » Повесть о Неистовом (1947) SATRip от New-Team скачать торрент бесплатно




    Повесть о Неистовом (1947) SATRip от New-Team скачать торрент бесплатно

    Опубликовал: Админ | Дата: 10-06-2015, 21:03 | Просмотров: 133



    Снималось в: СССР
    Создали в: Мосфильм
    Категория жанра: драма, военный
    Создали в: 1947
    Время просмотра: 01: 29: 29
    Перевод текста: Не требуется
    Субтитры подготовлены: нет
    Оригинальная аудиодорожка: русский
    Главный режиссер: Борис Бабочкин

    Актеры

    Борис Бабочкин, Виктор Миронов, Алексей Алексеев, Чеслав Сушкевич, Дмитрий Дубов, Виктор Проклов, Иван Кузнецов, О. Мерцедин, Александр Баранов, Александр Гречаный, Пётр Савин, Михаил Глузский, Иосиф Ваньков, М. Атаев, Андрей Карасев, Виталий Клиш, Яков Трайнин, В. Сударев, Иван Переверзев, Леонид Кмит, Александр Смирнов, Валериан Казанский, В. Бондарева, Галина Фролова, Е. Феоктистова, Эмилия Кравченко, Михаил Державин (ст.), Боря Бовыкин, Лев Потёмкин...
    Описание:
    Один из кораблей Северного флота, миноносец Неистовый, получает задание провести через зону действия немецких подводных лодок в Баренцовом море танкер с горючим, которое ждут на северных авиабазах.



    Источник: DVB
    Качество фильма видео: SATRip
    Тип видео видео: AVI
    Информация о видео: 688x512 (4: 3), 25 fps, XviD ~ 2134 kbps avg, 0.242 bit/pixel
    Информация о звуке: 48 kHz, Dolby Digital AC3 2.0, 192 kbps
    Раздача от:
    MediaInfo

    Общее
    Полное имя : Povest.o.Neistovom.1947.SATRip_New-team_by_AVP_Studio.avi
    Формат : AVI
    Формат/Информация : Audio Video Interleave
    Размер файла : 1, 46 Гбайт
    Продолжительность : 1 ч. 29 м.
    Общий поток : 2336 Кбит/сек
    Программа кодирования : VirtualDubModRus 1.5.10.2 (build 2542/release)
    Библиотека кодирования : VirtualDubMod build 2542/release
    Видео
    Идентификатор : 0
    Формат : MPEG-4 Visual
    Профиль формата : Advanced Simple@L5
    Параметр BVOP формата : 1
    Параметр QPel формата : Нет
    Параметр GMC формата : Без точки перехода
    Параметр матрицы формата : Выборочная
    Идентификатор кодека : XVID
    Идентификатор кодека/Подсказка : XviD
    Продолжительность : 1 ч. 29 м.
    Битрейт : 2134 Кбит/сек
    Ширина : 688 пикселей
    Высота : 512 пикселей
    Соотношение сторон : 4: 3
    Частота кадров : 25, 000 кадров/сек
    Цветовое пространство : YUV
    Субдискретизация насыщенности : 4: 2: 0
    Битовая глубина : 8 бит
    Тип развёртки : Прогрессивная
    Метод сжатия : С потерями
    Бит/(Пиксели*Кадры) : 0.242
    Размер потока : 1, 33 Гбайт (91%)
    Библиотека кодирования : XviD 73
    Аудио
    Идентификатор : 1
    Формат : MPEG Audio
    Версия формата : Version 1
    Профиль формата : Layer 2
    Идентификатор кодека : 50
    Продолжительность : 1 ч. 29 м.
    Вид битрейта : Постоянный
    Битрейт : 192 Кбит/сек
    Каналы : 2 канала
    Частота : 48, 0 КГц
    Метод сжатия : С потерями
    Размер потока : 123 Мбайт (8%)
    Выравнивание : Соединение по промежуткам
    Продолжительность промежутка : 40 мс. (1, 00 видеокадр)
    Время предзагрузки промежутка : 504 мс

    Скриншоты



    Залил: AVPStudio
    Размер скачиваемого торрента: 1.46 GB (1567391744 Bytes)

    Повесть о Неистовом (1947) SATRip от New-Team
    загрузка...
    Рейтинг →
     (голосов: 1, оценка 4/5, голосовать можно 1 раз )

    Другие торренты по теме:

  • Михаил Булгаков - Собачье сердце. Повести и рассказы (2005) MP3 торрент скачать бесплатно
  • Дин Кунц - Повести и рассказы (2007) (2013) MP3 торрент скачать бесплатно
  • Повесть о клане Ягю: Искусство ниндзя / Yagyu bugeicho - Ninjitsu (1957-1958) DVDRip торрент скачать бесплатно
  • Марриет Фредерик - Корабль-призрак, или повесть о Летучем Голландце (2011) МРЗ торрент скачать бесплатно
  • Николай Лесков - Леди Макбет Мценского уезда. Повести и рассказы (2007) MP3 торрент скачать бесплатно
  • Зощенко Михаил - Повесть о разуме (2011) MP3 торрент скачать бесплатно
  • Гоголь Николай - Петербургские повести (2002) MP3 торрент скачать бесплатно
  • Век Мопассана. Повести и рассказы XIX столетия / Au siecle de Maupassant: Contes et nouvelles du XIXeme siecle (2010) SATRip торрент скачать бесплатно


    • Комментарии (0):

      Информация

      Информация

        Посетители, находящиеся в группе Гости, не могут оставлять комментарии в данной новости.

        ↓ Меню



        ↓ Опрос

        А Вы добавили сайт в закладки?
        Да
        Не


        Top 10 за неделю (Фильмы)