.
Авторизация | Регистрация
Хочешь лучшие торренты? Добавь свой email!
Добавить
» » Оно / It Follows (2014) BDRip 1080p | L2, A торрент скачать бесплатно




    Оно / It Follows (2014) BDRip 1080p | L2, A торрент скачать бесплатно

    Опубликовал: Админ | Дата: 11-06-2015, 00:03 | Просмотров: 87




    Детально о кино
    Русское название: Оно/Оно следует за тобой
    Русское название в мировом прокате: It Follows
    Создали в: 2014
    Категория жанра: ужасы, детектив
    Главный режиссер: Дэвид Роберт Митчелл

    Актеры
    Кейр Гилкрист, Carollette Phillips, Лорен Басс, Оливия Луккарди, Лили Сепе, Майка Монро, Джейк Вири, Дэниэл Дзоватто, Чарльз Гертнер, Бэйли Спрай


    Сюжет фильма
    После сексуальной связи 19-летнюю девушку по имени Джей начинают мучать странные видения и непреодолимое чувство того, что кто-то или что-то за ней следит…



    Снималось в: США/Northern Lights Films, Animal Kingdom, Two Flints
    Время просмотра: 01: 40: 13
    Перевод текста: Любительский (двухголосый, закадровый)- Киностудия Пиратского дубляжа
    Авторский (одноголосый, закадровый)- А. Матвеев

    Файл
    Качество фильма: BDRip 1080p
    Тип видео: MKV
    Информация о видео: MPEG4/AVC, 11.5 Мбит/сек, 1920х800 (2.40: 1), 23.976 кадра/сек
    Информация о звуке 1: AC3, 6 каналов, 448 Кбит/сек | Русский - Студия Пиратского дубляжа
    Информация о звуке 2: AC3, 6 каналов, 448 Кбит/сек | Русский - А. Матвеев
    Информация о звуке 3: DTS, 6 каналов, 1509 Кбит/сек | Русский - А. Матвеев
    Информация о звуке 4: DTS, 6 каналов, 1509 Кбит/сек | Английский
    Субтитры: Русские (А. Матвеев), английские
    Навигация по главам: Есть

    MediaInfo:
    Общее
    Уникальный идентификатор : 247587734012724827193279568681035832290 (0xBA43A9BF992DCEA5840546CB08BB1BE2)
    Полное имя : It Follows. (2014) BDRip 1080p.mkv
    Формат : Matroska
    Версия формата : Version 2
    Размер файла : 11, 0 Гбайт
    Продолжительность : 1 ч. 40 м.
    Общий поток : 15, 7 Мбит/сек
    Название фильма : It Follows. 2014
    Дата кодирования : UTC 2015-06-10 16: 05: 34
    Программа кодирования : mkvmerge v5.8.0 (;No Sleep/Pillow;) built on Sep 2 2012 15: 37: 04
    Библиотека кодирования : libebml v1.2.3 + libmatroska v1.3.0

    Видео
    Идентификатор : 1
    Формат : AVC
    Формат/Информация : Advanced Video Codec
    Профиль формата : High@L4.1
    Параметр CABAC формата : Да
    Параметр ReFrames формата : 4 кадра
    Идентификатор кодека : V_MPEG4/ISO/AVC
    Продолжительность : 1 ч. 40 м.
    Битрейт : 11, 5 Мбит/сек
    Ширина : 1920 пикселей
    Высота : 800 пикселей
    Соотношение сторон : 2, 40: 1
    Режим частоты кадров : Постоянный
    Частота кадров : 23, 976 кадра/сек
    Цветовое пространство : YUV
    Субдискретизация насыщенности : 4: 2: 0
    Битовая глубина : 8 бит
    Тип развёртки : Прогрессивная
    Бит/(Пиксели*Кадры) : 0.311
    Размер потока : 8, 02 Гбайт (73%)
    Заголовок : MTeam
    Библиотека кодирования : x264 core 146 r2538+50 0a51886 8-bit@4: 2: 0 X86_64
    Настройки программы : cabac=1/ref=4/deblock=1: -3: -3/analyse=0x3: 0x113/me=umh/subme=11/psy=1/fade_compensate=0.00/psy_rd=1.05: 0.10/mixed_ref=1/me_range=48/chroma_me=1/trellis=2/8x8dct=1/cqm=0/deadzone=21, 11/fast_pskip=0/chroma_qp_offset=-2/threads=12/lookahead_threads=2/sliced_threads=0/nr=0/decimate=1/interlaced=0/bluray_compat=0/constrained_intra=0/fgo=0/bframes=8/b_pyramid=2/b_adapt=2/b_bias=0/direct=3/weightb=1/open_gop=0/weightp=2/keyint=250/keyint_min=23/scenecut=40/intra_refresh=0/rc_lookahead=40/rc=crf/mbtree=0/crf=19.0000/qcomp=0.60/qpmin=0: 0: 0/qpmax=69: 69: 69/qpstep=4/vbv_maxrate=50000/vbv_bufsize=45000/crf_max=0.0/nal_hrd=none/filler=0/ip_ratio=1.40/pb_ratio=1.30/aq=3: 1.00/aq-sensitivity=10.00/aq-factor=1.00: 1.00: 1.00/aq2=0/aq3=0
    Язык : English
    Default : Да
    Forced : Нет
    Коэффициенты матрицы : BT.709

    Аудио #1
    Идентификатор : 2
    Формат : AC-3
    Формат/Информация : Audio Coding 3
    Расширение режима : CM (complete main)
    Параметр Endianness формата : Big
    Идентификатор кодека : A_AC3
    Продолжительность : 1 ч. 40 м.
    Вид битрейта : Постоянный
    Битрейт : 448 Кбит/сек
    Каналы : 6 каналов
    Расположение каналов : Front: L C R, Side: L R, LFE
    Частота : 48, 0 КГц
    Битовая глубина : 16 бит
    Метод сжатия : С потерями
    Размер потока : 321 Мбайт (3%)
    Заголовок : L2 | Студия Пиратского дубляжа
    Язык : Russian
    Default : Да
    Forced : Нет

    Аудио #2
    Идентификатор : 3
    Формат : AC-3
    Формат/Информация : Audio Coding 3
    Расширение режима : CM (complete main)
    Параметр Endianness формата : Big
    Идентификатор кодека : A_AC3
    Продолжительность : 1 ч. 40 м.
    Вид битрейта : Постоянный
    Битрейт : 448 Кбит/сек
    Каналы : 6 каналов
    Расположение каналов : Front: L C R, Side: L R, LFE
    Частота : 48, 0 КГц
    Битовая глубина : 16 бит
    Метод сжатия : С потерями
    Задержка видео : 125 мс.
    Размер потока : 321 Мбайт (3%)
    Заголовок : A | А. Матвеева
    Язык : Russian
    Default : Нет
    Forced : Нет

    Аудио #3
    Идентификатор : 4
    Формат : DTS
    Формат/Информация : Digital Theater Systems
    Режим : 16
    Параметр Endianness формата : Big
    Идентификатор кодека : A_DTS
    Продолжительность : 1 ч. 40 м.
    Вид битрейта : Постоянный
    Битрейт : 1509 Кбит/сек
    Каналы : 6 каналов
    Расположение каналов : Front: L C R, Side: L R, LFE
    Частота : 48, 0 КГц
    Битовая глубина : 24 бит
    Метод сжатия : С потерями
    Размер потока : 1, 06 Гбайт (10%)
    Заголовок : A | А. Матвеев
    Язык : Russian
    Default : Нет
    Forced : Нет

    Аудио #4
    Идентификатор : 5
    Формат : DTS
    Формат/Информация : Digital Theater Systems
    Режим : 16
    Параметр Endianness формата : Big
    Идентификатор кодека : A_DTS
    Продолжительность : 1 ч. 40 м.
    Вид битрейта : Постоянный
    Битрейт : 1509 Кбит/сек
    Каналы : 6 каналов
    Расположение каналов : Front: L C R, Side: L R, LFE
    Частота : 48, 0 КГц
    Битовая глубина : 24 бит
    Метод сжатия : С потерями
    Размер потока : 1, 06 Гбайт (10%)
    Заголовок : Original
    Язык : English
    Default : Нет
    Forced : Нет

    Текст #1
    Идентификатор : 6
    Формат : UTF-8
    Идентификатор кодека : S_TEXT/UTF8
    Идентификатор кодека/Информация : UTF-8 Plain Text
    Заголовок : Full
    Язык : Russian
    Default : Нет
    Forced : Нет

    Текст #2
    Идентификатор : 7
    Формат : UTF-8
    Идентификатор кодека : S_TEXT/UTF8
    Идентификатор кодека/Информация : UTF-8 Plain Text
    Заголовок : Full
    Язык : English
    Default : Нет
    Forced : Нет

    Меню
    00: 00: 00.000 : en: Chapter 01
    00: 03: 53.024 : en: Chapter 02
    00: 08: 46.901 : en: Chapter 03
    00: 13: 58.671 : en: Chapter 04
    00: 22: 05.115 : en: Chapter 05
    00: 27: 20.930 : en: Chapter 06
    00: 32: 12.513 : en: Chapter 07
    00: 44: 38.467 : en: Chapter 08
    00: 49: 14.993 : en: Chapter 09
    00: 53: 58.485 : en: Chapter 10
    01: 02: 48.055 : en: Chapter 11
    01: 07: 45.019 : en: Chapter 12
    01: 16: 13.485 : en: Chapter 13
    01: 26: 19.007 : en: Chapter 14
    01: 31: 18.514 : en: Chapter 15
    01: 35: 42.194 : en: Chapter 16



    Релиз подготовил:
    Размер скачиваемого торрента: 10.98 GB (11790350711 Bytes)

    Оно/It Follows (2014) BDRip 1080p | L2, A
    загрузка...
    Рейтинг →
     (голосов: 1, оценка 4/5, голосовать можно 1 раз )

    Другие торренты по теме:

  • Оно / Оно следует за тобой / It Follows (2014) WEBRip 720p | Матвеев
  • Михаил Успенский - Приключения Жихаря 02. Время Оно (2006) MP3
  • Как оно есть: Мясо (2014) SATRip
  • Алексей Ордынский - Оно без ума
  • Как оно есть. Кофе [Эфир от 22.11.2014] скачать через торрент бесплатно
  • Оно / It Follows (2014) WEBRip | A
  • Оно / It Follows (2014) HRip | L2
  • Оно / It Follows (2014) BDRip 1080p | L2


    • Комментарии (0):

      Информация

      Информация

        Посетители, находящиеся в группе Гости, не могут оставлять комментарии в данной новости.

        ↓ Меню



        ↓ Опрос

        А Вы добавили сайт в закладки?
        Да
        Не


        Top 10 за месяц (Фильмы)