.
Авторизация | Регистрация
» » Особо опасен / Wanted (2008) HDRip от Шкипер скачать торрент бесплатно




    Особо опасен / Wanted (2008) HDRip от Шкипер скачать торрент бесплатно

    Опубликовал: Админ | Дата: 11-06-2015, 15:01 | Просмотров: 128



    Детально о кино
    Русское название: Особо опасен
    Русское название в мировом прокате: Wanted
    Создали в: 2008
    Категория жанра: Боевик, триллер, драма
    Главный режиссер: Тимур Бекмамбетов

    Актеры
    Джеймс МакЭвой, Морган Фриман, Анджелина Джоли, Теренс Стэмп, Томас Кречманн, Common, Кристен Хагер, Марк Уоррен, Дэвид О`Хара, Константин Хабенский, Дато Бахтадзе, Крис Прэтт, Лорна Скотт, София Хак, Брэд Калькатерра, Брайан Каспе, Марк О`Нил, Бриджет МакМанус, Скарлетт Спердуто, Боб Эри, Дэниэл Боутон

    Сюжет фильма

    Уэсли Гибсон — зануда и нытик, целыми днями торчащий в офисе. Босс его унижает, подружка ему изменяет. Его жизнь катится в никуда! Обнаружив, что отец, бросивший его в раннем детстве, зверски убит, Уэс оказывается втянут в тайное общество киллеров под названием Братство. За его обучение берется опытная наставница Фокс, и этот когда-то прикованный к офисному креслу хлюпик развивает молниеносную реакцию и сверхчеловеческую скорость. Однако уже на первом задании Уэсли понимает: есть вещи посложнее, чем вершить судьбы других людей. Это — набраться храбрости и стать хозяином собственной жизни.

    Снималось в: США, Германия
    Киностудия: Universal Pictures
    Время просмотра: 01: 49: 10
    Перевод текста: Профессиональный (полное дублирование)
    Файл
    Кодек для видео: XviD
    Качество фильма: HDRip
    Информация о видео: 608x256 (2.38: 1), 23.976 fps, XviD build 73 ~823 kbps avg, 0.22 bit/pixel
    Информация о звуке: 48 kHz, MPEG Layer 3, 2 ch, ~128.00 kbps avg
    Субтитры: Отсутствует
    Семпл
    MI
    Общее
    Полное имя : D: ТоррентМОИ РИПЫОсобо опасенOsobo opasen.2008.HDrip by Шкипер.avi
    Формат : AVI
    Формат/Информация : Audio Video Interleave
    Размер файла : 751 Мбайт
    Продолжительность : 1 ч. 49 м.
    Общий поток : 961 Кбит/сек
    Программа кодирования : VirtualDubMod 1.5.10.3 | www.virtualdub-fr.org || (build 2550/release)
    Библиотека кодирования : VirtualDubMod build 2550/release
    Видео
    Идентификатор : 0
    Формат : MPEG-4 Visual
    Профиль формата : Advanced Simple@L5
    Параметр BVOP формата : 1
    Параметр QPel формата : Нет
    Параметр GMC формата : Без точки перехода
    Параметр матрицы формата : Default (MPEG)
    Идентификатор кодека : XVID
    Идентификатор кодека/Подсказка : XviD
    Продолжительность : 1 ч. 49 м.
    Битрейт : 824 Кбит/сек
    Ширина : 608 пикселей
    Высота : 256 пикселей
    Соотношение сторон : 2, 40: 1
    Частота кадров : 23, 976 кадра/сек
    Цветовое пространство : YUV
    Субдискретизация насыщенности : 4: 2: 0
    Битовая глубина : 8 бит
    Тип развёртки : Прогрессивная
    Метод сжатия : С потерями
    Бит/(Пиксели*Кадры) : 0.221
    Размер потока : 643 Мбайт (86%)
    Библиотека кодирования : XviD 73
    Аудио
    Идентификатор : 1
    Формат : MPEG Audio
    Версия формата : Version 1
    Профиль формата : Layer 3
    Режим : Joint stereo
    Расширение режима : MS Stereo
    Идентификатор кодека : 55
    Идентификатор кодека/Подсказка : MP3
    Продолжительность : 1 ч. 49 м.
    Вид битрейта : Постоянный
    Битрейт : 128 Кбит/сек
    Каналы : 2 канала
    Частота : 48, 0 КГц
    Метод сжатия : С потерями
    Размер потока : 99, 9 Мбайт (13%)
    Выравнивание : Соединение по промежуткам
    Продолжительность промежутка : 42 мс. (1, 00 видеокадр)
    Время предзагрузки промежутка : 504 мс.
    Библиотека кодирования : LAME3.99r
    Настройки программы : -m j -V 4 -q 2 -lowpass 17 -b 128
    Скриншоты

    Релиз подготовил: Релиз подготовил: Автор Рипа:

    Онлайн видео Особо опасен


    Размер скачиваемого торрента: 750.63 MB (787087360 Bytes)

    Особо опасен/Wanted (2008) HDRip от Шкипер
    загрузка...
    Рейтинг →
     (голосов: 1, оценка 3/5, голосовать можно 1 раз )

    Другие торренты по теме:

  • OST - Особо опасен / Wanted Soundtrack (2008) MP3 торрент скачать бесплатно
  • Особо опасен / Wanted (2008) HDRip-AVC | D торрент скачать бесплатно
  • Особо опасен / Самый опасный человек (2014) HDRip скачать через торрент бесплатно
  • Серия - Особо опасен для рейха в 27 томах (2007-2009) FB2 скачать через торрент бесплатно
  • Особо опасен / Wanted (2008) HDRip-AVC | D скачать торрент бесплатно
  • Особо опасен / Wanted (2008) BDRip 720p | D скачать торрент бесплатно
  • Веденеев Василий - Особо опасен для Рейха 3, Камера смертников (2007) (2015) MP3 скачать торрент бесплатно
  • Веденеев Василий - Особо опасен для Рейха 4, Дорога без следов (2007) (2015) MP3 скачать торрент бесплатно


    • Комментарии (0):

      Информация

      Информация

        Посетители, находящиеся в группе Гости, не могут оставлять комментарии в данной новости.

        ↓ Меню



        ↓ Опрос

        А Вы добавили сайт в закладки?
        Да
        Не


        Top 10 за неделю (Фильмы)