.
Авторизация | Регистрация
» » Отступники / The Departed (2006) BDRip 720p от HQ-ViDEO | D скачать торрент бесплатно




    Отступники / The Departed (2006) BDRip 720p от HQ-ViDEO | D скачать торрент бесплатно

    Опубликовал: Админ | Дата: 11-06-2015, 15:06 | Просмотров: 217


    Отступники/The Departed (2006) BDRip 720p
    Релиз от HQ-ViDEO

    Детально о кино
    Русское название: Отступники
    Русское название в мировом прокате: The Departed
    Создали в: 2006
    Категория жанра: триллер, драма, криминал
    Главный режиссер: Мартин Скорсезе /Martin Scorsese/

    Актеры
    Леонардо ДиКаприо /Leonardo DiCaprio/, Мэтт Дэймон /Matt Damon/, Джек Николсон /Jack Nicholson/, Марк Уолберг /Mark Wahlberg/, Мартин Шин /Martin Sheen/ , Рэй Уинстон /Ray Winstone/, Вера Фармига /Vera Farmiga/, Энтони Андерсон /Anthony Anderson/, Алек Болдуин /Alec Baldwin/ ...

    Сюжет фильма

    Два лучших выпускника полицейской академии оказались по разные стороны баррикады: один из них — агент мафии в рядах правоохранительных органов, другой — крот, внедрённый в мафию. Каждый считает своим долгом обнаружить и уничтожить противника, но постоянная жизнь в искажённых реалиях меняет внутренний мир героев.

    Награды и номинации:

    Оскар, 2007 год
    Победитель (4):
    - Лучший фильм
    - Лучший режиссер (Мартин Скорсезе)
    - Лучший адаптированный сценарий
    - Лучший монтаж
    Номинации (1):
    - Лучшая мужская роль второго плана (Марк Уолберг)
    Золотой глобус, 2007 год
    Победитель (1):
    - Лучший режиссер (Мартин Скорсезе)
    Номинации (5):
    - Лучший фильм (драма)
    - Лучшая мужская роль (драма) (Леонардо ДиКаприо)
    - Лучшая мужская роль второго плана (Марк Уолберг)
    - Лучшая мужская роль второго плана (Джек Николсон)
    - Лучший сценарий
    Премия канала MTV, 2007 год
    Победитель (1):
    - Лучший злодей (Джек Николсон)
    Британская академия, 2007 год
    Номинации (6):
    - Лучший фильм
    - Лучшая мужская роль (Леонардо ДиКаприо)
    - Лучшая мужская роль второго плана (Джек Николсон)
    - Лучший адаптированный сценарий
    - Лучший монтаж
    - Премия имени Дэвида Лина за достижения в режиссуре (Мартин Скорсезе)
    Жорж, 2007 год
    Номинации (1):
    - Лучший высокобюджетный/зрелищный фильм
    Сатурн, 2007 год
    Номинации (1):
    - Лучший приключенческий фильм, боевик или триллер
    Премия Гильдии актеров, 2007 год
    Номинации (2):
    - Лучший актерский состав
    - Лучшая мужская роль второго плана (Леонардо ДиКаприо)

    Снималось в: США, Гонконг
    Время просмотра: 02: 31: 19
    Перевод текста: Русский дублированный + Оригинальная, английская дорожка
    Отдельно на Яндекс Диске:
    Русский профессиональный, двухголосый перевод (П. Гланц и И. Королёва)
    Русский авторский, одноголосый перевод (А. Гаврилов)
    Русский авторский, одноголосый перевод (Ю. Немахов)
    Русский любительский, одноголосый перевод (Zamez, перевод REN_313)
    Файл
    Кодек для видео: MKV, H.264
    Качество фильма: BDRip 720p (Source: Blu-ray Disc)
    Информация о видео: 5138 kbps; 0.315 bit/pixel; 1280 x 532; 2.40: 1; 23.976 fps
    Информация о звуке #1: AC3 Dolby Digital; 448.00 kbps, 6 Ch - DUB
    Информация о звуке #2: AC3 Dolby Digital; 448.00 kbps, 6 Ch - ENG
    Информация о звуке #3: AC3 Dolby Digital; 448.00 kbps, 6 Ch - DVO (отдельно/скачать с Яндекс Диск)
    Информация о звуке #4: AC3 Dolby Digital; 384.00 kbps, 6 Ch - AVO Gavrilov (отдельно/скачать с Яндекс Диск)
    Информация о звуке #5: AC3 Dolby Digital; 448.00 kbps, 6 Ch - AVO Nemahov (отдельно/скачать с Яндекс Диск)
    Информация о звуке #6: AC3 Dolby Digital; 448.00 kbps, 6 Ch - VO Zamez (отдельно/скачать с Яндекс Диск)
    Субтитры: Русские, Английские.
    Субтитры: Русские (полные (2 вида), форсированные), Английские.(отдельно)
    Размер скачиваемого торрента: 6.51 GB
    SAMPLE/скачать с Яндекс Диск
    MediaInfo

    General
    Complete name : Otstupniki.2006.DUAL.BDRip.720p.h264.AC3.-HQ-ViDEO.mkv
    Format : Matroska
    File size : 6.51 GiB
    Duration : 2h 31mn
    Overall bit rate : 6 157 Kbps
    Movie name : The Departed (2006)
    Encoded date : UTC 2010-11-03 07: 26: 27
    Writing application : mkvmerge v3.3.0 (;Language;) built on Mar 24 2010 14: 59: 24
    Writing library : libebml v0.8.0 + libmatroska v0.9.0
    Video
    ID : 1
    Format : AVC
    Format/Info : Advanced Video Codec
    Format profile : High@L4.1
    Format settings, CABAC : Yes
    Format settings, ReFrames : 6 frames
    Muxing mode : Container profile=Unknown@4.1
    Codec ID : V_MPEG4/ISO/AVC
    Duration : 2h 31mn
    Bit rate : 5 138 Kbps
    Width : 1 280 pixels
    Height : 532 pixels
    Display aspect ratio : 2.40: 1
    Frame rate : 23.976 fps
    Resolution : 8 bits
    Colorimetry : 4: 2: 0
    Scan type : Progressive
    Bits/(Pixel*Frame) : 0.315
    Stream size : 5.43 GiB (83%)
    Title : Encoded by GYN
    Audio #1
    ID : 2
    Format : AC-3
    Format/Info : Audio Coding 3
    Codec ID : A_AC3
    Duration : 2h 31mn
    Bit rate mode : Constant
    Bit rate : 448 Kbps
    Channel(s) : 6 channels
    Channel positions : Front: L C R, Surround: L R, LFE
    Sampling rate : 48.0 KHz
    Stream size : 485 MiB (7%)
    Title : DUB
    Language : Russian
    Audio #2
    ID : 3
    Format : AC-3
    Format/Info : Audio Coding 3
    Codec ID : A_AC3
    Duration : 2h 31mn
    Bit rate mode : Constant
    Bit rate : 448 Kbps
    Channel(s) : 6 channels
    Channel positions : Front: L C R, Surround: L R, LFE
    Sampling rate : 48.0 KHz
    Stream size : 485 MiB (7%)
    Title : Original
    Language : English
    Text #1
    ID : 4
    Format : UTF-8
    Codec ID : S_TEXT/UTF8
    Codec ID/Info : UTF-8 Plain Text
    Language : Russian
    Text #2
    ID : 5
    Format : UTF-8
    Codec ID : S_TEXT/UTF8
    Codec ID/Info : UTF-8 Plain Text
    Language : English





    Релиз подготовил: HQ-ViDEO
    Автор рипа: GYN

    Онлайн видео Отступники


    Размер скачиваемого торрента: 6.51 GB (6987110818 Bytes)

    Отступники/The Departed (2006) BDRip 720p от HQ-ViDEO | D
    загрузка...
    Рейтинг →
     (голосов: 1, оценка 5/5, голосовать можно 1 раз )

    Другие торренты по теме:

  • Отступники / The Departed (2006) BDRip-AVC торрент скачать бесплатно
  • Отступник И.А. - Энциклопедия кладоискателя (1998) PDF торрент скачать бесплатно
  • Сальваторе Роберт - Отступник (2013) MP3 торрент скачать бесплатно
  • Отступники / The Departed (2006) BDRip 720p от leonardo 59 Scarabey | Лицензия торрент скачать бесплатно
  • Отступники / The Departed (2006) BDRip-AVC от leonardo 59 Scarabey скачать через торрент бесплатно
  • Отступники / The Departed (2006) HDRip-AVC | iPhone скачать через торрент бесплатно
  • Отступники / The Departed (2006) DVD9 | P2, A скачать через торрент бесплатно
  • Отступники / The Departed (2006) BDRip-AVC от 0ptimus | D, P2, A, L1 скачать через торрент бесплатно


    • Комментарии (0):

      Информация

      Информация

        Посетители, находящиеся в группе Гости, не могут оставлять комментарии в данной новости.

        ↓ Меню



        ↓ Опрос

        А Вы добавили сайт в закладки?
        Да
        Не


        Top 10 за неделю (Фильмы)