.
Авторизация | Регистрация
Хочешь лучшие торренты? Добавь свой email!
Добавить
» » Прослушка / The Wire (2002-2008) WEB-DLRip торрент скачать бесплатно




    Прослушка / The Wire (2002-2008) WEB-DLRip торрент скачать бесплатно

    Опубликовал: Админ | Дата: 12-06-2015, 09:02 | Просмотров: 405



    Русское название: Прослушка
    Русское название в мировом прокате: The Wire
    Создали в: 2002-2008
    Категория жанра: Триллер, драма, криминал, детектив
    Главный режиссер: Джо Чаппелль, Клемент Вирго, Роб Бэйли

    Актеры
    Доминик Уэст, Джон Доумен, Дирдри Лавджой, Уэнделл Пирс, Лэнс Реддик, Соня Сон, Сет Гиллиам, Доменик Ломбардоззи, Кларк Питерс, Андре Ройо, Майкл К. Уильямс, Джим Тру-Фрост, Фрэнки Фэйзон, Кори Паркер Робинсон, Делани Уильямс, Дж.Д. Уильямс, Вуд Харрис, Идрис Эльба, Эйден Гиллен, Джэми Гектор, Гбенга Акиннагбе, Роберт Уиздом, Чад Коулмэн, Анван Гловер, Майкл Кострофф, Трей Чейни, Исайя Уитлок мл., Майкл Салкони, Фелиция Пирсон, Роберт Ф. Чю

    Описание фильма
    Самый популярный в америке сериал про полицейских. Сериал повествует о полицейских расследованиях в Балтиморе. Именно этот сериал, любимый сериал полицейских и гангстеров помог правоохранительным органам разгромить сеть наркоторговцев. Полицейские источники сообщили, что лидеры преступной группировки вели себя в точности как герои телесериала, в частности, постоянно меняли мобильные телефоны, затрудняя прослушивание. В ходе подготовки операции полицейские широко применяли прослушивание телефонных разговоров гангстеров. В результате были арестованы 12 человек, изъяты 43 кг кокаина, 500.000 долларов наличными, 18 единиц оружия и пять дорогостоящих автомобилей. Бандиты, оказавшиеся большими поклонниками Прослушки, помимо обсуждения своих дел по телефону, говорили и о сюжете очередной серии. Полицейские, прослушивавшие их, тоже любили этот фильм. Если мы пропускали какой-то эпизод, то всегда могли узнать подробности из их бесед, – сообщили стражи порядка Криминальная драма, написана, снята и спродюсирована в Балтиморе бывшим полицейским репортером Дэвидом Саймоном.
    Снималось в: США, Blown Deadline Productions, Home Box Office (HBO)
    Время просмотра: 60 x ~ 00: 58: 00
    Перевод текста: Профессиональный многоголосый Fox Crime
    Качество фильма: WEB-DLRip
    Информация о видео: XviD build 73, ~ 1500 Кбит/с, 720x400
    Информация о звуке rus: MP3, 2 ch, 128 Кбит/с
    Инфо
    Полное имя : D: The.Wire59.The.Wire.tahiy.avi
    Формат : AVI
    Формат/Информация : Audio Video Interleave
    Размер файла : 679 Мбайт
    Продолжительность : 59 м.
    Общий поток : 1584 Кбит/сек
    Название фильма : The.Wire.tahiy
    Программа кодирования : VirtualDubMod 1.5.10.3 | www.virtualdub-fr.org || (build 2550/release)
    Видео
    Идентификатор : 0
    Формат : MPEG-4 Visual
    Профиль формата : Advanced Simple@L5
    Параметр BVOP формата : 1
    Параметр QPel формата : Нет
    Параметр GMC формата : Без точки перехода
    Параметр матрицы формата : Default (MPEG)
    Идентификатор кодека : XVID
    Идентификатор кодека/Подсказка : XviD
    Продолжительность : 59 м.
    Битрейт : 1447 Кбит/сек
    Ширина : 720 пикселей
    Высота : 400 пикселей
    Соотношение сторон : 16: 9
    Частота кадров : 23, 976 кадра/сек
    Цветовое пространство : YUV
    Субдискретизация насыщенности : 4: 2: 0
    Битовая глубина : 8 бит
    Тип развёртки : Прогрессивная
    Метод сжатия : С потерями
    Бит/(Пиксели*Кадры) : 0.210
    Размер потока : 620 Мбайт (91%)
    Библиотека кодирования : XviD 73
    Аудио
    Идентификатор : 1
    Формат : MPEG Audio
    Версия формата : Version 1
    Профиль формата : Layer 3
    Режим : Joint stereo
    Идентификатор кодека : 55
    Идентификатор кодека/Подсказка : MP3
    Продолжительность : 59 м.
    Вид битрейта : Постоянный
    Битрейт : 128 Кбит/сек
    Каналы : 2 канала
    Частота : 48, 0 КГц
    Метод сжатия : С потерями
    Размер потока : 54, 8 Мбайт (8%)
    Выравнивание : Соединение по промежуткам
    Продолжительность промежутка : 42 мс. (1, 00 видеокадр)
    Время предзагрузки промежутка : 504 мс.
    Библиотека кодирования : LAME3.99r
    Настройки программы : -m j -V 4 -q 2 -lowpass 17 -b 128




    Онлайн видео Прослушка


    Размер скачиваемого торрента: 39.53 GB (42441269248 Bytes)

    Прослушка/The Wire (2002-2008) WEB-DLRip
    загрузка...
    Рейтинг →
     (голосов: 1, оценка 4/5, голосовать можно 1 раз )

    Другие торренты по теме:

  • Прослушка / The Wire (2002) DVDRip | Ю. Сербин
  • the Chemodan Clan - Прослушка (2014) MP3 от AGR - Generalfilm скачать через торрент бесплатно
  • Прослушка / The Wire (2002) WEB-DLRip от Scarabey | А + Р
  • Прослушка / The Wire (2002–2008) WEB-DL 720p | Р, 4хА
  • Прослушка / The Wire (2003) BDRip-AVC от HQ-ViDEO
  • Прослушка / The Wire (2002–2008) WEB-DL 720p | Р, 4хА


    • Комментарии (0):

      Информация

      Информация

        Посетители, находящиеся в группе Гости, не могут оставлять комментарии в данной новости.

        ↓ Меню



        ↓ Опрос

        А Вы добавили сайт в закладки?
        Да
        Не


        Top 10 за месяц (Фильмы)