.
Авторизация | Регистрация
» » Слишком крута для тебя / Shes Out of My League (2010) BDRip 720p от HQ-ViDEO | D | Лицензия скачать торрент бесплатно




    Слишком крута для тебя / Shes Out of My League (2010) BDRip 720p от HQ-ViDEO | D | Лицензия скачать торрент бесплатно

    Опубликовал: Админ | Дата: 12-06-2015, 14:06 | Просмотров: 111


    Слишком крута для тебя/She;s Out of My League (2010) BDRip 720p
    Релиз от HQ-ViDEO

    Детально о кино
    Русское название: Слишком крута для тебя
    Русское название в мировом прокате: She;s Out of My League
    Создали в: 2010
    Категория жанра: мелодрама, комедия
    Главный режиссер: Джим Филд Смит /Jim Field Smith/

    Актеры
    Джей Барушель /Jay Baruchel/, Элис Ив /Alice Eve/, ТиДжей Миллер /T.J. Miller/, Майк Фогель /Mike Vogel/, Нейт Торренс /Nate Torrence/, Линдсэй Слоун /Lindsay Sloane/, Кайл Борнхеймер /Kyle Bornheimer/, Джессика Ст. Клэр /Jessica St. Clair/, Кристен Риттер /Krysten Ritter/, Дебра Джо Рапп /Debra Jo Rupp/...

    Сюжет фильма

    Неуверенный в себе Кирк Кеттнер отвечает за безопасность на авиарейсах, точнее просит пассажиров перед полётом снимать свою обувь для досмотра. Однажды Кирку повезло встретить Молли и вопреки его ожиданиям, с этой умной и очаровательной девушкой у них возникли взаимные чувства. Вот только не стоило Кирку слушать советов семьи и друзей, считающих, что Молли слишком хороша для него.

    Снималось в: США
    Время просмотра: 01: 44: 32
    Перевод текста: Русский дублированный (Лицензия) + Оригинальная, английская дорожка +Украинский дублированный (Лицензия) (отдельно)
    Файл
    Кодек для видео: MKV, H.264
    Качество фильма: BDRip 720p (Source: Blu-ray Disc)
    Информация о видео: 4966 kbps; 0.297 bit/pixel; 1280 x 544; 16: 9; 23.976 fps
    Информация о звуке #1: AC3 Dolby Digital; 448.00 kbps, 6 Ch - RUS DUB
    Информация о звуке #2: AC3 Dolby Digital; 448.00 kbps, 6 Ch - ENG
    Информация о звуке #3: AC3 Dolby Digital; 448.00 kbps, 6 Ch - UKR DUB (отдельно/скачать с Яндекс Диск)
    Субтитры: Английские.
    Субтитры: Русские (полные (2 вида), форсированные), Английские (2 вида).(отдельно)
    Размер скачиваемого торрента: 4.37 GB
    SAMPLE/скачать с Яндекс Диск
    MediaInfo

    General
    Complete name : Slishkom.Kruta.Dlya.Tebya.2010.DUAL.BDRip.h264.720p.AC3.-HQ-ViDEO.mkv
    Format : Matroska
    File size : 4.37 GiB
    Duration : 1h 44mn
    Overall bit rate : 5 981 Kbps
    Movie name : She;s Out of My League (2010)
    Encoded date : UTC 2010-09-09 11: 49: 44
    Writing application : mkvmerge v3.3.0 (;Language;) built on Mar 24 2010 14: 59: 24
    Writing library : libebml v0.8.0 + libmatroska v0.9.0
    Video
    ID : 1
    Format : AVC
    Format/Info : Advanced Video Codec
    Format profile : High@L4.1
    Format settings, CABAC : Yes
    Format settings, ReFrames : 6 frames
    Muxing mode : Container profile=Unknown@4.1
    Codec ID : V_MPEG4/ISO/AVC
    Duration : 1h 44mn
    Bit rate : 4 966 Kbps
    Width : 1 280 pixels
    Height : 544 pixels
    Display aspect ratio : 2.35: 1
    Frame rate : 23.976 fps
    Resolution : 8 bits
    Colorimetry : 4: 2: 0
    Scan type : Progressive
    Bits/(Pixel*Frame) : 0.297
    Stream size : 3.62 GiB (83%)
    Title : Encoded by GYN
    Audio #1
    ID : 2
    Format : AC-3
    Format/Info : Audio Coding 3
    Codec ID : A_AC3
    Duration : 1h 44mn
    Bit rate mode : Constant
    Bit rate : 448 Kbps
    Channel(s) : 6 channels
    Channel positions : Front: L C R, Surround: L R, LFE
    Sampling rate : 48.0 KHz
    Stream size : 335 MiB (7%)
    Title : DUB
    Language : Russian
    Audio #2
    ID : 3
    Format : AC-3
    Format/Info : Audio Coding 3
    Codec ID : A_AC3
    Duration : 1h 44mn
    Bit rate mode : Constant
    Bit rate : 448 Kbps
    Channel(s) : 6 channels
    Channel positions : Front: L C R, Surround: L R, LFE
    Sampling rate : 48.0 KHz
    Stream size : 335 MiB (7%)
    Title : Original
    Language : English
    Text
    ID : 4
    Format : UTF-8
    Codec ID : S_TEXT/UTF8
    Codec ID/Info : UTF-8 Plain Text
    Language : English





    Релиз подготовил: HQ-ViDEO
    Автор рипа: GYN

    Онлайн видео Слишком крута для тебя


    Размер скачиваемого торрента: 4.37 GB (4689002596 Bytes)

    Слишком крута для тебя/Shes Out of My League (2010) BDRip 720p от HQ-ViDEO | D | Лицензия
    загрузка...
    Рейтинг →
     (голосов: 1, оценка 5/5, голосовать можно 1 раз )

    Другие торренты по теме:



      Комментарии (0):

      Информация

      Информация

        Посетители, находящиеся в группе Гости, не могут оставлять комментарии в данной новости.

        ↓ Меню



        ↓ Опрос

        А Вы добавили сайт в закладки?
        Да
        Не


        Top 10 за неделю (Фильмы)