.
Авторизация | Регистрация




Отряд / Posse (1993) DVD-9 от NovaLan скачать торрент бесплатно

Опубликовал: Админ | Дата: 12-06-2015, 18:02 | Просмотров: 65



Детально о кино
Русское название: Отряд
Русское название в мировом прокате: Posse
Создали в: 1993
Категория жанра: Вестерн
Главный режиссер: Марио Ван Пиблз

Актеры
Чарльз Лейн, Марио Ван Пиблз, Стивен Болдуин, Марк Бунцман, Томми Листер, Биг Дэдди Кэйн, Билли Зейн, Блэр Андервуд, Мелвин Ван Пиблз, Салли Ричардсон-Уитфилд, Тоун Лок, Пэм Гриер, Ричард Джордан, Пол Бартел, Стефен Дж. Кэннел, Ричард Эдсон

Сюжет фильма
1898 год, в самом разгаре испано-американская война за южные территории. Джесси Ли и его друзья Малыш Джей, гигант Обобо, Уизи, Ангел сражаются на Кубе в составе 10-го кавалерийского отряда. И все военные, включая чернокожего командира Джесса Ли демонстрируют исключительную храбрость, отвагу и выдержку. Подвиги отряда не нравятся полковнику Грэму – трусу, расисту и предателю. Когда Грэм потребует от Джесса убить невинного, военный предпочтет поступить по совести, а не по уставу. После этого отряд в полном составе дезертирует с изрядно надоевшей войны, прихватив незаконно добытое Грэмом золото. Солдаты отправляются домой, в США, помогая по дороге бедным и возвращая в мир справедливость. К сожалению, наёмники Грэма идут за ними по пятам. Так что маленькому отряду постоянно придётся сражаться за свою жизнь с многократно превосходящими силами противника.

Снималось в: США, Великобритания
Киностудия: PolyGram Filmed Entertainment, Working Title Films
Время просмотра: 01: 51: 00
Перевод текста: Профессиональный многоголосый, профессиональный двухголосый
Файл
Кодек для видео: MPEG-2
Качество фильма: DVD9
Информация о видео: MPEG2, NTSC 16: 9 (720x480@853x480) VBR, 23, 976 кадра/сек
Информация о звуке: Русский/Английский 5.1 (448 Kbps), Русский/Франузский/Итальянский 2.0 (192 Kbps)
Меню
DVDInfo
Title: Локальный диск
Size: 7.17 Gb ( 7 518 788 KBytes ) - DVD-9
Enabled regions: 1, 2, 3, 4, 5, 6, 7, 8
VTS_01 :
Play Length: 01: 51: 00
Video: NTSC 16: 9 (720x480) VBR, Auto PanScan
Audio:
Russian (Dolby AC3, 2 ch)
Russian (Dolby AC3, 6 ch)
English (Dolby AC3, 6 ch)
Francais (Dolby AC3, 2 ch)
Italiano (Dolby AC3, 2 ch)
Menu Video:
NTSC 4: 3 (704x480) VBR
Menu English Language Unit :
Root Menu
MediaInfo
Общее
Полное имя : D: 1АААОТРЯДVIDEO_TSVTS_01_1.VOB
Формат : MPEG-PS
Размер файла : 1000 Мбайт
Продолжительность : 15 м.
Режим общего битрейта : Переменный
Общий поток : 8811 Кбит/сек
Видео
Идентификатор : 224 (0xE0)
Формат : MPEG Video
Версия формата : Version 2
Профиль формата : Main@Main
Параметр BVOP формата : Да
Параметр матрицы формата : По умолчанию
Параметр GOP формата : M=3, N=12
Продолжительность : 15 м.
Вид битрейта : Переменный
Битрейт : 7163 Кбит/сек
Максимальный битрейт : 8320 Кбит/сек
Ширина : 720 пикселей
Высота : 480 пикселей
Соотношение сторон : 16: 9
Частота кадров : 23, 976 кадра/сек
Стандарт вещания : NTSC
Цветовое пространство : YUV
Субдискретизация насыщенности : 4: 2: 0
Битовая глубина : 8 бит
Тип развёртки : Прогрессивная
Порядок развёртки : 2: 3 Pulldown
Метод сжатия : С потерями
Бит/(Пиксели*Кадры) : 0.865
TimeCode_FirstFrame : 00: 00: 00;00
TimeCode_Source : Group of pictures t_head
Размер потока : 813 Мбайт (81%)
Аудио #1
Идентификатор : 189 (0xBD)-128 (0x80)
Формат : AC-3
Формат/Информация : Audio Coding 3
Расширение режима : CM (complete main)
Параметр Endianness формата : Big
Режим смешивания : DVD-Video
Продолжительность : 15 м.
Вид битрейта : Постоянный
Битрейт : 192 Кбит/сек
Каналы : 2 канала
Расположение каналов : Front: L R
Частота : 48, 0 КГц
Битовая глубина : 16 бит
Метод сжатия : С потерями
Размер потока : 21, 8 Мбайт (2%)
Аудио #2
Идентификатор : 189 (0xBD)-129 (0x81)
Формат : AC-3
Формат/Информация : Audio Coding 3
Расширение режима : CM (complete main)
Параметр Endianness формата : Big
Режим смешивания : DVD-Video
Продолжительность : 15 м.
Вид битрейта : Постоянный
Битрейт : 448 Кбит/сек
Каналы : 6 каналов
Расположение каналов : Front: L C R, Side: L R, LFE
Частота : 48, 0 КГц
Битовая глубина : 16 бит
Метод сжатия : С потерями
Размер потока : 50, 9 Мбайт (5%)
Аудио #3
Идентификатор : 189 (0xBD)-130 (0x82)
Формат : AC-3
Формат/Информация : Audio Coding 3
Расширение режима : CM (complete main)
Параметр Endianness формата : Big
Режим смешивания : DVD-Video
Продолжительность : 15 м.
Вид битрейта : Постоянный
Битрейт : 448 Кбит/сек
Каналы : 6 каналов
Расположение каналов : Front: L C R, Side: L R, LFE
Частота : 48, 0 КГц
Битовая глубина : 16 бит
Метод сжатия : С потерями
Размер потока : 50, 9 Мбайт (5%)
Аудио #4
Идентификатор : 189 (0xBD)-131 (0x83)
Формат : AC-3
Формат/Информация : Audio Coding 3
Расширение режима : CM (complete main)
Параметр Endianness формата : Big
Режим смешивания : DVD-Video
Продолжительность : 15 м.
Вид битрейта : Постоянный
Битрейт : 192 Кбит/сек
Каналы : 2 канала
Расположение каналов : Front: L R
Частота : 48, 0 КГц
Битовая глубина : 16 бит
Метод сжатия : С потерями
Размер потока : 21, 8 Мбайт (2%)
Аудио #5
Идентификатор : 189 (0xBD)-132 (0x84)
Формат : AC-3
Формат/Информация : Audio Coding 3
Расширение режима : CM (complete main)
Параметр Endianness формата : Big
Режим смешивания : DVD-Video
Продолжительность : 15 м.
Вид битрейта : Постоянный
Битрейт : 192 Кбит/сек
Каналы : 2 канала
Расположение каналов : Front: L R
Частота : 48, 0 КГц
Битовая глубина : 16 бит
Метод сжатия : С потерями
Размер потока : 21, 8 Мбайт (2%)
Меню


Скриншоты

Релиз группа:
Автор:
Залил: YArl
Размер скачиваемого торрента: 7.17 GB (7699238912 Bytes)

Отряд/Posse (1993) DVD-9 от NovaLan
загрузка...
Рейтинг →
 (голосов: 1, оценка 3/5, голосовать можно 1 раз )

Другие торренты по теме:

  • Летучий отряд Скотланд-Ярда / The Sweeney (2012) BDRip-AVC | L1 торрент скачать бесплатно
  • Отряд Стиляги / The Mod Squad (1999) HDTVRip 1080p от RG MixTorrent | P2 торрент скачать бесплатно
  • Элитный отряд: Враг среди нас / Tropa de Elite 2 - O Inimigo Agora Outro (2010) BDRemux 1080p от HDTracker торрент скачать бесплатно
  • Отряд героев / Company of Heroes (2013) HDRip | L1 торрент скачать бесплатно
  • Отряд особого назначения / Forces speciales (2011) НDRip от Scarabey | D | Лицензия торрент скачать бесплатно
  • Полицейский пёс: Отряд К-9 / Dog x police: Junpaku no kizuna (2011) HDRip | L2 торрент скачать бесплатно
  • Отряд спасения / Rogue force (1998) DVDRip торрент скачать бесплатно
  • Отряд Галактика - Куча-Мала / Gatchaman Crowds (2013) HDTV 720p | L торрент скачать бесплатно


    • Комментарии (0):

      Информация

      Информация

        Посетители, находящиеся в группе Гости, не могут оставлять комментарии в данной новости.

        ↓ Меню



        ↓ Опрос

        А Вы добавили сайт в закладки?
        Да
        Не


        Top 10 за неделю (Фильмы)