.
Авторизация | Регистрация
Хочешь лучшие торренты? Добавь свой email!
Добавить
» » Призраки в Коннектикуте 2: Тени прошлого / The Haunting in Connecticut 2: Ghosts of Georgi (2013) BDRip 1080 от SuperMin торрент скачать бесплатно




    Призраки в Коннектикуте 2: Тени прошлого / The Haunting in Connecticut 2: Ghosts of Georgi (2013) BDRip 1080 от SuperMin торрент скачать бесплатно

    Опубликовал: Админ | Дата: 12-06-2015, 18:02 | Просмотров: 144



    Детально о кино
    Русское название: Призраки в Коннектикуте 2: Тени прошлого
    Русское название в мировом прокате: The Haunting in Connecticut 2: Ghosts of Georgi
    Создали в: 2013
    Категория жанра: ужасы, триллер
    Главный режиссер: Том Элкинс

    Актеры
    Эбигейл Спенсер, Чад Майкл Мюррэй, Кэти Сакхофф, Эмили Элин Линд, Сисели Тайсон, Моргана Шоу, Грант Джеймс, Мэри Луиз Коффи, Лорен Пеннингтон, Сэм Полин

    Сюжет фильма

    Девочка Хайди недавно переехала в Джорджию вместе со своими родителями. Однако жизнь на новом месте не задалась, так как ее начали терроризировать призраки. Вынужденные поверить в происходящее, родители пытаются выяснить причину паранормальных явлений.

    Снималось в: США
    Время просмотра: 01: 40: 58
    Перевод текста: Профессиональный (полное дублирование) + Любительское (двухголосое) den904, DeadSno
    Файл
    Кодек для видео: h264
    Качество фильма: BDRip 1080 от SuperMin
    Информация о видео: 1920х800 (2.40: 1), 5805 Kbps, 23.976 fps
    Информация о звуке:
    Профессиональный (полное дублирование) (AC-3, 6ch, 384 kbps)
    Любительское (двухголосое) den904, DeadSno (AC-3, 6ch, 384 kbps)
    Оригинал (AC-3, 6ch, 448 kbps)
    Субтитры: русские
    Лог
    x264 info: frame I: 1613 Avg QP: 16.36 size: 231020
    x264 info: frame P: 37766 Avg QP: 18.90 size: 53568
    x264 info: frame B: 105877 Avg QP: 21.34 size: 18812
    x264 info: consecutive B-frames: 3.5% 4.5% 25.6% 18.2% 17.2% 22.4% 4.1% 1.9% 2.6%

    MI
    Video
    ID : 1
    Format : AVC
    Format/Info : Advanced Video Codec
    Format profile : High@L4.1
    Format settings, CABAC : Yes
    Format settings, ReFrames : 5 frames
    Codec ID : V_MPEG4/ISO/AVC
    Duration : 1h 40mn
    Bit rate : 5 805 Kbps
    Width : 1 920 pixels
    Height : 800 pixels
    Display aspect ratio : 2.40: 1
    Frame rate mode : Constant
    Frame rate : 23.976 fps
    Color space : YUV
    Chroma subsampling : 4: 2: 0
    Bit depth : 8 bits
    Scan type : Progressive
    Bits/(Pixel*Frame) : 0.158
    Stream size : 3.99 GiB (81%)
    Writing library : x264 core 146 r2538 121396c
    Encoding settings : cabac=1/ref=5/deblock=1: 0: 0/analyse=0x3: 0x113/me=umh/subme=10/psy=1/psy_rd=1.00: 0.00/mixed_ref=1/me_range=32/chroma_me=1/trellis=2/8x8dct=1/cqm=0/deadzone=21, 11/fast_pskip=0/chroma_qp_offset=-2/threads=4/lookahead_threads=1/sliced_threads=0/nr=0/decimate=1/interlaced=0/bluray_compat=0/constrained_intra=0/bframes=8/b_pyramid=2/b_adapt=2/b_bias=0/direct=1/weightb=1/open_gop=0/weightp=2/keyint=230/keyint_min=22/scenecut=40/intra_refresh=0/rc_lookahead=40/rc=2pass/mbtree=1/bitrate=5805/ratetol=1.0/qcomp=0.60/qpmin=0/qpmax=69/qpstep=4/cplxblur=20.0/qblur=0.5/vbv_maxrate=62500/vbv_bufsize=78125/nal_hrd=none/filler=0/ip_ratio=1.40/aq=1: 0.80
    Default : Yes
    Forced : No
    Audio #1
    ID : 2
    Format : AC-3
    Format/Info : Audio Coding 3
    Mode extension : CM (complete main)
    Format settings, Endianness : Big
    Codec ID : A_AC3
    Duration : 1h 40mn
    Bit rate mode : Constant
    Bit rate : 384 Kbps
    Channel count : 6 channels
    Channel positions : Front: L C R, Side: L R, LFE
    Sampling rate : 48.0 KHz
    Bit depth : 16 bits
    Compression mode : Lossy
    Stream size : 277 MiB (5%)
    Title : Dub | DD 5.1 @ 384 kbps - R5
    Language : Russian
    Default : Yes
    Forced : Yes
    Audio #2
    ID : 3
    Format : AC-3
    Format/Info : Audio Coding 3
    Mode extension : CM (complete main)
    Format settings, Endianness : Big
    Codec ID : A_AC3
    Duration : 1h 40mn
    Bit rate mode : Constant
    Bit rate : 384 Kbps
    Channel count : 6 channels
    Channel positions : Front: L C R, Side: L R, LFE
    Sampling rate : 48.0 KHz
    Bit depth : 16 bits
    Compression mode : Lossy
    Stream size : 277 MiB (5%)
    Title : DD 5.1 @ 384 kbps - L2, bden904, DeadSnoB
    Language : Russian
    Default : No
    Forced : Yes
    Audio #3
    ID : 4
    Format : AC-3
    Format/Info : Audio Coding 3
    Mode extension : CM (complete main)
    Format settings, Endianness : Big
    Codec ID : A_AC3
    Duration : 1h 40mn
    Bit rate mode : Constant
    Bit rate : 448 Kbps
    Channel count : 6 channels
    Channel positions : Front: L C R, Side: L R, LFE
    Sampling rate : 48.0 KHz
    Bit depth : 16 bits
    Compression mode : Lossy
    Stream size : 324 MiB (6%)
    Language : English
    Default : No
    Forced : No
    Text
    ID : 5
    Format : UTF-8
    Codec ID : S_TEXT/UTF8
    Codec ID/Info : UTF-8 Plain Text
    Language : Russian
    Default : No
    Forced : No

    Скриншоты

    Релиз подготовил: SuperMin
    Залил: SuperMin

    Онлайн видео Призраки в Коннектикуте 2: Тени прошлого


    Размер скачиваемого торрента: 4.95 GB (5313075848 Bytes)

    Призраки в Коннектикуте 2: Тени прошлого/The Haunting in Connecticut 2: Ghosts of Georgi (2013) BDRip 1080 от SuperMin
    загрузка...
    Рейтинг →
     (голосов: 1, оценка 3/5, голосовать можно 1 раз )

    Другие торренты по теме:



      Комментарии (0):

      Информация

      Информация

        Посетители, находящиеся в группе Гости, не могут оставлять комментарии в данной новости.

        ↓ Меню



        ↓ Опрос

        А Вы добавили сайт в закладки?
        Да
        Не


        Top 10 за месяц (Фильмы)