.
Авторизация | Регистрация
» » Факап, или Хуже не бывает / Nicht mein Tag (2014) HDRip-AVC | iTunes скачать торрент бесплатно




    Факап, или Хуже не бывает / Nicht mein Tag (2014) HDRip-AVC | iTunes скачать торрент бесплатно

    Опубликовал: Админ | Дата: 13-06-2015, 00:01 | Просмотров: 120




    Детально о кино
    Русское название: Факап, или Хуже не бывает
    Русское название в мировом прокате: Nicht mein Tag
    Создали в: 2014
    Категория: боевик, комедия, криминал, приключения
    Главный режиссер: Петер Торварт

    Актеры
    Мориц Бляйбтрой, Аксель Штайн, Жасмин Герат, Анна Мария Мюэ, Неля Кипер, Бен Рюдингер, Касэм Ходжа, Беким Гури, Тобиас Нид, Максвелл Рихтер

    Сюжет фильма

    Тиль Райнер — банковский клерк 30-ти лет. Каждый новый день его жизни похож на предыдущий. Отношения с супругой больше напоминают привычку. Но неожиданно происходит то, что позволяет выбраться ему из повседневной рутины. Тиля захватывает в заложники грабитель банка, в котором наш герой узнает заявителя по кредиту — Наппо. Полиция разрабатывает план перехват, устанавливает блокпосты, поэтому Наппо решает спрятать заложника в багажник и исчезнуть с награбленным! Но все идет не по плану и Наппо скрывается вместе с Тиллем! После того как шок от случившегося немного проходит, Тиль забывает про какое-либо благоразумие и погружается с головой в приключения вместе со своим похитителем…

    Снималось в: Германия
    Время просмотра: 01: 50: 17
    Озвучивание: Дублированное iTunes
    Файл
    Тип видео: MKV
    Качество фильма: HDRip-AVC
    Информация о видео: High@L4.1, ~2350 kb/s, 1024x436
    Информация о звуке: AC3, 384 kb/s (6 ch)
    Субтитры: Нет

    M/I
    General
    Unique ID : 80047858090767093244191987617873542228 (0x3C38A81CB6368E7BDE0838257F103C54)
    Complete name : F: Факап, или Хуже не бывает.2014.HDRIP_AVC.-=DoMiNo=-.mkv
    Format : Matroska
    Format version : Version 4/Version 2
    File size : 2.16 GiB
    Duration : 1h 50mn
    Overall bit rate : 2 802 Kbps
    Writing application : XviD4PSP 7.0.135
    Writing library : Lavf56.25.101
    ENCODING_INFO : MATROSKA, WEBM MKV/H264 X264 CRF 18, 0 Custom/AC3 COPY
    Video
    ID : 1
    Format : AVC
    Format/Info : Advanced Video Codec
    Format profile : High@L4.1
    Format settings, CABAC : Yes
    Format settings, ReFrames : 12 frames
    Codec ID : V_MPEG4/ISO/AVC
    Duration : 1h 50mn
    Bit rate : 2 363 Kbps
    Width : 1 024 pixels
    Height : 436 pixels
    Display aspect ratio : 2.35: 1
    Frame rate mode : Constant
    Frame rate : 25.000 fps
    Color space : YUV
    Chroma subsampling : 4: 2: 0
    Bit depth : 8 bits
    Scan type : Progressive
    Bits/(Pixel*Frame) : 0.212
    Stream size : 1.82 GiB (84%)
    Title : Nicht Mein Tag (2014)
    Writing library : x264 core 146 r2538M 121396c
    Encoding settings : cabac=1/ref=12/deblock=1: -3: -3/analyse=0x3: 0x133/me=umh/subme=10/psy=1/psy_rd=1, 00: 0, 10/mixed_ref=1/me_range=32/chroma_me=1/trellis=2/8x8dct=1/cqm=0/deadzone=21, 11/fast_pskip=0/chroma_qp_offset=-3/threads=12/lookahead_threads=3/sliced_threads=0/nr=0/decimate=1/interlaced=0/bluray_compat=0/constrained_intra=0/bframes=11/b_pyramid=2/b_adapt=2/b_bias=0/direct=1/weightb=1/open_gop=0/weightp=2/keyint=250/keyint_min=25/scenecut=40/intra_refresh=0/rc=crf/mbtree=0/crf=18, 0/qcomp=0, 60/qpmin=10/qpmax=69/qpstep=4/ip_ratio=1, 40/pb_ratio=1, 30/aq=1: 1, 00
    Language : German
    Default : Yes
    Forced : No
    Audio
    ID : 2
    Format : AC-3
    Format/Info : Audio Coding 3
    Mode extension : CM (complete main)
    Format settings, Endianness : Big
    Codec ID : A_AC3
    Duration : 1h 50mn
    Bit rate mode : Constant
    Bit rate : 384 Kbps
    Channel(s) : 6 channels
    Channel positions : Front: L C R, Side: L R, LFE
    Sampling rate : 48.0 KHz
    Bit depth : 32 bits
    Compression mode : Lossy
    Stream size : 303 MiB (14%)
    Language : Russian
    Default : Yes
    Forced : No
    Menu
    00: 00: 00.000 : : 00: 00: 00.000
    00: 07: 21.360 : : 00: 07: 21.360
    00: 15: 47.040 : : 00: 15: 47.040
    00: 22: 52.600 : : 00: 22: 52.600
    00: 30: 56.040 : : 00: 30: 56.040
    00: 37: 25.960 : : 00: 37: 25.960
    00: 45: 21.840 : : 00: 45: 21.840
    00: 52: 59.000 : : 00: 52: 59.000
    01: 01: 33.640 : : 01: 01: 33.640
    01: 09: 28.439 : : 01: 09: 28.440
    01: 15: 51.920 : : 01: 15: 51.920
    01: 23: 02.120 : : 01: 23: 02.120
    01: 31: 39.560 : : 01: 31: 39.560
    01: 37: 32.320 : : 01: 37: 32.320
    01: 44: 16.800 : : 01: 44: 16.800
    01: 46: 06.680 : : 01: 46: 06.680


    Онлайн видео Факап, или Хуже не бывает


    Размер скачиваемого торрента: 2.16 GB (2318007697 Bytes)

    Факап, или Хуже не бывает/Nicht mein Tag (2014) HDRip-AVC | iTunes
    загрузка...
    Рейтинг →
     (голосов: 1, оценка 4/5, голосовать можно 1 раз )

    Другие торренты по теме:

  • Факап, или Хуже не бывает (2014) HDRip скачать торрент бесплатно
  • Факап, или Хуже не бывает / Nicht mein Tag (2014) HDRip | iTunes скачать торрент бесплатно
  • Факап, или Хуже не бывает / Nicht mein Tag (2014) HDRip | iTunes скачать торрент бесплатно
  • Факап, или Хуже не бывает / Nicht mein Tag (2014) BDRip 720p | iTunes скачать торрент бесплатно
  • Факап, или Хуже не бывает / Nicht mein Tag (2014) HDRip | iTunes скачать торрент бесплатно
  • Факап, или Хуже не бывает / Nicht mein Tag (2014) HDRip от Scarabey | iTunes скачать торрент бесплатно
  • Факап, или Хуже не бывает / Nicht mein Tag (2014) HDRip от Scarabey | iTunes скачать торрент бесплатно
  • Факап, или Хуже не бывает / Nicht mein Tag (2014) HDRip-AVC от Scarabey | iTunes скачать торрент бесплатно


    • Комментарии (0):

      Информация

      Информация

        Посетители, находящиеся в группе Гости, не могут оставлять комментарии в данной новости.

        ↓ Меню



        ↓ Опрос

        А Вы добавили сайт в закладки?
        Да
        Не


        Top 10 за неделю (Фильмы)