.
Авторизация | Регистрация
» » В следующий раз я буду стрелять в сердце / La prochaine fois je viserai le coeur (2015) WEBRip 1080p | Трейлер скачать торрент бесплатно




    В следующий раз я буду стрелять в сердце / La prochaine fois je viserai le coeur (2015) WEBRip 1080p | Трейлер скачать торрент бесплатно

    Опубликовал: Админ | Дата: 13-06-2015, 20:39 | Просмотров: 175



    Создали в: 2014
    Создали в: Франция
    Категория жанра: триллер
    Перевод текста: Дублированный
    Главный режиссер: Седрик Анже
    Продюсеры: Ален Аттал, Anne Rapczyk, Томас Клотц
    Актеры: Гийом Кане, Ана Жирардо, Жан-Ив Бертело, Патрик Азам, Арно Анриет, Дуглас Аттал, Pierick Tournier, Александр Карьер, Fran?ois-Dominique Blin, Фрэнк Андриё
    Описание фильма:
    На протяжении нескольких месяцев, между 1978 и 1979 годами, жители Уазы постоянно испытывают тревогу и страх: на улицах свирепствует жестокий маньяк, мишенью которого являются молодые женщины. Вторгаясь в человеческие судьбы за рулем своего авто, преступник ранит и убивает выбранных наугад людей, голосующих на дороге. Словно находясь везде и нигде одновременно, он с легкостью ускользает от ловушек правосудия, избегая любые возможные преграды. Что и неудивительно, ведь в действительности он — молодой и робкий жандарм, ведущий в глазах коллектива скучную и монотонную жизнь. И как образцовый жандарм, он с удовольствием расследует свои собственные преступления…
    Дата мировой премьеры: 23 августа 2014
    Дата российской премьеры: 16 июля 2015

    Время просмотра: 00: 02: 34
    Качество фильма видео: WEBRip
    Информация о видеокодек: MPEG-4 AVC/H.264
    Битрейт видео: 2394 Кбит/сек
    Размер скачиваемого торрента кадра: 1920x1080
    Информация о звукекодек: AAC
    Битрейт аудио: 126 Кбит/сек
    MediaInfo:

    Общее
    Полное имя : В следующий раз я буду стрелять в сердце Русский Трейлер (2015).mp4
    Формат : MPEG-4
    Профиль формата : Base Media
    Идентификатор кодека : isom
    Размер файла : 46, 4 Мбайт
    Продолжительность : 2 м. 34 с.
    Общий поток : 2524 Кбит/сек
    Программа кодирования : Lavf56.19.100
    Видео
    Идентификатор : 1
    Формат : AVC
    Формат/Информация : Advanced Video Codec
    Профиль формата : High@L4
    Параметр CABAC формата : Да
    Параметр ReFrames формата : 2 кадра
    Идентификатор кодека : avc1
    Идентификатор кодека/Информация : Advanced Video Coding
    Продолжительность : 2 м. 34 с.
    Битрейт : 2394 Кбит/сек
    Ширина : 1920 пикселей
    Высота : 1080 пикселей
    Соотношение сторон : 16: 9
    Режим частоты кадров : Постоянный
    Частота кадров : 24, 000 кадра/сек
    Цветовое пространство : YUV
    Субдискретизация насыщенности : 4: 2: 0
    Битовая глубина : 8 бит
    Тип развёртки : Прогрессивная
    Бит/(Пиксели*Кадры) : 0.048
    Размер потока : 44, 0 Мбайт (95%)
    Аудио
    Идентификатор : 2
    Формат : AAC
    Формат/Информация : Advanced Audio Codec
    Профиль формата : LC
    Идентификатор кодека : 40
    Продолжительность : 2 м. 34 с.
    Вид битрейта : Постоянный
    Битрейт : 126 Кбит/сек
    Каналы : 2 канала
    Расположение каналов : Front: L R
    Частота : 44, 1 КГц
    Метод сжатия : С потерями
    Размер потока : 2, 31 Мбайт (5%)

    Скриншоты



    Скриншоты



    Залил: Jokerzv

    Онлайн видео В следующий раз я буду стрелять в сердце


    Размер скачиваемого торрента: 46.40 MB (48658549 Bytes)

    В следующий раз я буду стрелять в сердце/La prochaine fois je viserai le coeur (2015) WEBRip 1080p | Трейлер
    загрузка...
    Рейтинг →
     (голосов: 1, оценка 5/5, голосовать можно 1 раз )

    Другие торренты по теме:

  • След - 52 (2013) SATRip торрент скачать бесплатно
  • След (2012-2013) SATRip торрент скачать бесплатно
  • След панды / Xiong mao hui jia lu (2009) HDTVRip 720p от Filmoff CLUB | P торрент скачать бесплатно
  • По следу Тигра / Most (1969) DVD5 торрент скачать бесплатно
  • Руставели - Следы на песке (2013) MP3 от AGR - Generalfilm торрент скачать бесплатно
  • Бастион - Не по форме След (2012) МР3 торрент скачать бесплатно
  • Гримм Братья - По следам Бременских Музыкантов (1973) (2012) FLAC торрент скачать бесплатно
  • Борисова Виктория - Поезд следует в ад (2013) MP3 торрент скачать бесплатно


    • Комментарии (0):

      Информация

      Информация

        Посетители, находящиеся в группе Гости, не могут оставлять комментарии в данной новости.

        ↓ Меню



        ↓ Опрос

        А Вы добавили сайт в закладки?
        Да
        Не


        Top 10 за неделю (Фильмы)