.
Авторизация | Регистрация
Хочешь лучшие торренты? Добавь свой email!
Добавить




Пирогов (1947) DVDRip от New-Team торрент скачать бесплатно

Опубликовал: Админ | Дата: 14-06-2015, 00:02 | Просмотров: 173



Снималось в: СССР
Создали в: Ленфильм
Категория жанра: биография, военный
Создали в: 1947
Время просмотра: 01: 28: 47
Перевод текста: Не требуется
Субтитры подготовлены: нет
Оригинальная аудиодорожка: русский
Главный режиссер: Григорий Козинцев

Актеры

Константин Скоробогатов, Владимир Честноков, Сергей Яров, Алексей Дикий, Георгий Гумилевский, И. Новский, Яков Малютин, Пётр Лобанов, Николай Трофимов, Татьяна Пилецкая...
Описание:
Фильм о жизни и деятельности выдающегося русского анатома и хирурга, чл.-корр. Петербуржской АН (1846 г.) Николая Ивановича Пирогова. Первая большая роль Татьяны Пилецкой. Пирогов, непосредственный участник нескольких войн, — основоположник военно-полевой хирургии. Он впервые (в 1847 г.) произвёл операцию на поле боя под наркозом, ввёл неподвижную гипсовую повязку, предложил ряд новых хирургических операций. Научные труды Пирогова (главный: атлас Топографическая анатомия, 1851-54 гг.) получили мировую известность.



Источник: DVD5 R5
Качество фильма видео: DVDRip
Тип видео видео: AVI
Информация о видео: 640x480 (4: 3), 25 fps, XviD ~ 1034 kbps avg, 0.135 bit/pixel
Информация о звуке: 48 kHz, MP3 2.0, 128 kbps
Раздача от:
MediaInfo

Общее
Полное имя : Pirogov.1947.DVDRip-745_New-team_by_AVP_Studio.avi
Формат : AVI
Формат/Информация : Audio Video Interleave
Размер файла : 744 Мбайт
Продолжительность : 1 ч. 28 м.
Общий поток : 1172 Кбит/сек
Программа кодирования : VirtualDubModRus 1.5.10.2 (build 2542/release)
Библиотека кодирования : VirtualDubMod build 2542/release
Видео
Идентификатор : 0
Формат : MPEG-4 Visual
Профиль формата : Advanced Simple@L5
Параметр BVOP формата : 1
Параметр QPel формата : Нет
Параметр GMC формата : Без точки перехода
Параметр матрицы формата : Выборочная
Идентификатор кодека : XVID
Идентификатор кодека/Подсказка : XviD
Продолжительность : 1 ч. 28 м.
Битрейт : 1034 Кбит/сек
Ширина : 640 пикселей
Высота : 480 пикселей
Соотношение сторон : 4: 3
Частота кадров : 25, 000 кадров/сек
Цветовое пространство : YUV
Субдискретизация насыщенности : 4: 2: 0
Битовая глубина : 8 бит
Тип развёртки : Прогрессивная
Метод сжатия : С потерями
Бит/(Пиксели*Кадры) : 0.135
Размер потока : 657 Мбайт (88%)
Библиотека кодирования : XviD 73
Аудио
Идентификатор : 1
Формат : MPEG Audio
Версия формата : Version 1
Профиль формата : Layer 3
Идентификатор кодека : 55
Идентификатор кодека/Подсказка : MP3
Продолжительность : 1 ч. 28 м.
Вид битрейта : Постоянный
Битрейт : 128 Кбит/сек
Каналы : 2 канала
Частота : 48, 0 КГц
Метод сжатия : С потерями
Размер потока : 81, 3 Мбайт (11%)
Выравнивание : Соединение по промежуткам
Продолжительность промежутка : 40 мс. (1, 00 видеокадр)
Время предзагрузки промежутка : 504 мс.
Библиотека кодирования : LAME3.99r
Залил: AVPStudio

Онлайн видео Пирогов (1947) DVDRip от New


Размер скачиваемого торрента: 744.43 MB (780587008 Bytes)


Пирогов (1947) DVDRip от New-Team
загрузка...
Рейтинг →
 (голосов: 1, оценка 4/5, голосовать можно 1 раз )

Другие торренты по теме:

  • Пирогов (1947) DVDRip от New-Team
  • Пирогов (1947) DVDRip-AVC от New-Team


    • Комментарии (0):

      Информация

      Информация

        Посетители, находящиеся в группе Гости, не могут оставлять комментарии в данной новости.

        ↓ Меню



        ↓ Опрос

        А Вы добавили сайт в закладки?
        Да
        Не


        Top 10 за месяц (Фильмы)