.
Авторизация | Регистрация
» » Маленькая смерть / The Little Death (2014) BDRip 720p от KinoGadget | iPad скачать торрент бесплатно




    Маленькая смерть / The Little Death (2014) BDRip 720p от KinoGadget | iPad скачать торрент бесплатно

    Опубликовал: Админ | Дата: 14-06-2015, 03:14 | Просмотров: 138



    Создали в: 2014
    Снималось в: Австралия
    Категория жанра: комедия
    Время просмотра: 01: 36: 22
    Перевод текста: Профессиональный многоголосый
    Главный режиссер: Джошуа Лосон

    Актеры
    Бояна Новакович, Дэймон Херриман, Джош Лосон, Стефани Мэй, Лейчи Халм, Эрин Джеймс, Бен Лосон, Тэсним Рок, Т.Дж. Пауэр, Кейт Малвэйни, Кейт Бокс, Лиза МакКьюн, Патрик Браммалль, Мэтт Джеймс, Зои Каридес, Ким Джинджелл, Даррен Галлахер, Алан Дьюкс, Пол Глисон, Женевьева Хегни
    Описание: Сюжет фильма рассказывает о взаимоотношениях нескольких любовных пар. Пол и Мэйв всячески пытаются разнообразить свою интимную жизнь, прибегая к достаточно жестоким методам. Правда тайные фантазии девушки немного шокируют ее парня, но он старается не показывать этого. Ричард и Рованна на протяжении некоторого времени пытаются зачать ребенка, однако все их попытки уже давно превратились в механические действия, не приносящие никакого удовольствия. В это время в отношениях Дэна и Эви появляется довольно много проблем и они обращаются за помощью к профессиональному консультанту.
    Все они имеют тайные страхи и желания, но для каждого из них расставание равносильно смерти. Всеми способами они пытаются сохранить свои отношения, стараясь сделать любимого человека счастливым, что довольно часто приводит к курьезным ситуациям…

    Информация о видео кодек: MPEG-4 AVC
    Качество фильма: BDRip 720p
    Параметры Видео: 1280x536, 24.000 fps; ~1 826 kbps avg
    Параметры Звука: 44.1 KHz, AAC, ~150.00 kbps avg, 2ch
    Тип видео: mp4
    Автор рипа:
    Релиз-группа:

    Meta Tags


    MI
    General
    Complete name : E: Malenkay.Smert.2014.P.BDRip.720p_KinoGadget.mp4
    Format : MPEG-4
    Format profile : Base Media
    Codec ID : isom
    File size : 1.33 GiB
    Duration : 1h 36mn
    Overall bit rate mode : Variable
    Overall bit rate : 1 983 Kbps
    Movie name : Маленькая смерть
    Performer : Джошуа Лосон
    Genre : Comedy
    ContentType : Short Film
    Recorded date : 2014
    Encoded date : UTC 2015-06-13 11: 11: 48
    Tagged date : UTC 2015-06-13 11: 52: 25
    Cover : Yes
    LongDeion : Сюжет фильма рассказывает о взаимоотношениях нескольких любовных пар. Пол и Мэйв всячески пытаются разнообразить свою интимную жизнь, прибегая к достаточно жестоким методам. Правда тайные фантазии девушки немного шокируют ее парня, но он старается не показывать этого. Ричард и Рованна на протяжении некоторого времени пытаются зачать ребенка, однако все их попытки уже давно превратились в механические действия, не приносящие никакого удовольствия. В это время в отношениях Дэна и Эви появляется довольно много проблем и они обращаются за помощью к профессиональному консультанту.
    HDVideo : Yes
    Video
    ID : 1
    Format : AVC
    Format/Info : Advanced Video Codec
    Format profile : High@L4.1
    Format settings, CABAC : Yes
    Format settings, ReFrames : 11 frames
    Codec ID : avc1
    Codec ID/Info : Advanced Video Coding
    Duration : 1h 36mn
    Bit rate : 1 826 Kbps
    Maximum bit rate : 12.2 Mbps
    Width : 1 280 pixels
    Height : 536 pixels
    Display aspect ratio : 2.40: 1
    Frame rate mode : Constant
    Frame rate : 24.000 fps
    Color space : YUV
    Chroma subsampling : 4: 2: 0
    Bit depth : 8 bits
    Scan type : Progressive
    Bits/(Pixel*Frame) : 0.111
    Stream size : 1.23 GiB (92%)
    Writing library : x264 core 146 r2538 121396c
    Encoding settings : cabac=1/ref=11/deblock=1: -1: -1/analyse=0x3: 0x133/me=umh/subme=9/psy=1/psy_rd=1.00: 0.00/mixed_ref=1/me_range=24/chroma_me=1/trellis=2/8x8dct=1/cqm=0/deadzone=21, 11/fast_pskip=1/chroma_qp_offset=-2/threads=3/lookahead_threads=1/sliced_threads=0/nr=0/decimate=1/interlaced=0/bluray_compat=0/constrained_intra=0/bframes=4/b_pyramid=2/b_adapt=2/b_bias=0/direct=3/weightb=1/open_gop=0/weightp=2/keyint=240/keyint_min=24/scenecut=40/intra_refresh=0/rc_lookahead=60/rc=crf/mbtree=1/crf=21.0/qcomp=0.60/qpmin=0/qpmax=69/qpstep=4/ip_ratio=1.40/aq=1: 1.70
    Encoded date : UTC 2015-06-13 10: 08: 17
    Tagged date : UTC 2015-06-13 11: 12: 35
    Audio
    ID : 2
    Format : AAC
    Format/Info : Advanced Audio Codec
    Format profile : LC
    Codec ID : 40
    Duration : 1h 36mn
    Bit rate mode : Variable
    Bit rate : 150 Kbps
    Maximum bit rate : 225 Kbps
    Channel count : 2 channels
    Channel positions : Front: L R
    Sampling rate : 44.1 KHz
    Compression mode : Lossy
    Stream size : 103 MiB (8%)
    Language : Russian
    Encoded date : UTC 2015-06-13 11: 12: 23
    Tagged date : UTC 2015-06-13 11: 12: 35

    Скриншоты


    Залил: KinoGadget

    Онлайн видео Маленькая смерть


    Размер скачиваемого торрента: 1.33 GB (1433426904 Bytes)

    Маленькая смерть/The Little Death (2014) BDRip 720p от KinoGadget | iPad
    загрузка...
    Рейтинг →
     (голосов: 1, оценка 5/5, голосовать можно 1 раз )

    Другие торренты по теме:

  • Маленькие смерти / Little Deaths (2011) HDRip торрент скачать бесплатно
  • Маленькие смерти / Little Deaths (2011) BDRip-AVC от ExKinoRay | P, L1 торрент скачать бесплатно
  • Маленькая смерть / The Little Death (2014) HDRip | L1 торрент скачать бесплатно
  • Маленькая смерть / The Little Death (2014) HDRip от Scarabey | datynet скачать торрент бесплатно
  • Маленькая смерть (2014) HDRip скачать торрент бесплатно
  • Маленькая смерть / The Little Death (2014) HDRip | iTunes скачать торрент бесплатно
  • Маленькая смерть / The Little Death (2014) HDRip | iTunes скачать торрент бесплатно
  • Маленькая смерть / The Little Death (2014) BDRip 720р | iTunes скачать торрент бесплатно


    • Комментарии (0):

      Информация

      Информация

        Посетители, находящиеся в группе Гости, не могут оставлять комментарии в данной новости.

        ↓ Меню



        ↓ Опрос

        А Вы добавили сайт в закладки?
        Да
        Не


        Top 10 за неделю (Фильмы)