.
Авторизация | Регистрация
Хочешь лучшие торренты? Добавь свой email!
Добавить




Территория (2015) DVD5 торрент скачать бесплатно

Опубликовал: Админ | Дата: 14-06-2015, 18:00 | Просмотров: 269



Создали в: Россия/Кинокомпания Андреевский флаг
Категория жанра: Драма, приключения
Главный режиссер: Александр Мельник
Продюсеры: Антон Мельник, Ирина Борисова, Татьяна Емченко
Актеры: Константин Лавроненко, Григорий Добрыгин, Егор Бероев, Ксения Кутепова, Евгений Цыганов, Владислав Абашин, Герасим Васильев, Константин Шелестун, Константин Балакирев, Олег Шапков
Описание фильма:
Территория — это место, где люди проверяются на прочность. Необозримые пространства, где тундра встречается с ледяными торосами Ледовитого океана. Суровый русский север, которому способны бросить вызов немногие. Геолог Илья Чинков, одержимый идеей найти легендарное золото Территории, собирает команду смельчаков, готовых поставить на карту все, включая собственные жизни.
Перевод текста: Не требуется (русский)лицензия
Субтитры: Отсутствуют
Дата российской премьеры: 16 апреля 2015, Вольга
Дата выхода DVD релиза: 19 мая 2015, Lizard Cinema Trade
Время просмотра: 02: 32: 13
Качество фильма видео: DVD5
Информация о видеокодек: MPEG-2
Битрейт видео: ~4000 Кбит/сек
Размер скачиваемого торрента кадра: 720x576@1024x576 (PAL 16: 9)
Информация о звукекодек: AC3 5.1
Битрейт аудио: 448 Кбит/сек
DVDInfo:
Title: Территория DVD5
Size: 4.36 Gb ( 4 569 510, 00 KBytes ) - DVD-5
Enabled regions: 1, 2, 3, 4, 5, 6, 7, 8
VTS_01 :
Play Length: 00: 00: 00
Video: PAL 16: 9 (720x576) VBR, Auto PanScan, Auto Letterboxed
Audio:
Russian (Dolby AC3, 6 ch)
VTS_02 :
Play Length: 02: 32: 13
Video: PAL 16: 9 (720x576) VBR, Auto PanScan, Auto Letterboxed
Audio:
Russian (Dolby AC3, 6 ch)
* Menus Information *
VIDEO_TS Menu
Video:
NTSC 4: 3 (720x480) VBR
Auto PanScan, Auto Letterboxed
English Language Unit :
Title Menu
VTS_01 Menu
Video:
PAL 16: 9 (720x576) VBR
Auto Letterboxed
Audio:
Not specified (Dolby AC3, 2 ch)
English Language Unit :
Root Menu
Chapter (PTT) Menu
VTS_02 Menu
Video:
NTSC 4: 3 (720x480) VBR
Auto PanScan, Auto Letterboxed
English Language Unit :
Root Menu
Audio Menu
Chapter (PTT) Menu
MediaInfo:
Общее
Полное имя : G: ВидеоТерритория DVD5VIDEO_TSVTS_02_1.VOB
Формат : MPEG-PS
Размер файла : 1024 Мбайт
Продолжительность : 31 м.
Режим общего битрейта : Переменный
Общий поток : 4611 Кбит/сек
Видео
Идентификатор : 224 (0xE0)
Формат : MPEG Video
Версия формата : Version 2
Профиль формата : Main@Main
Параметр BVOP формата : Да
Параметр матрицы формата : Выборочная
Параметр GOP формата : Variable
Продолжительность : 31 м.
Вид битрейта : Переменный
Битрейт : 4071 Кбит/сек
Максимальный битрейт : 8738 Кбит/сек
Ширина : 720 пикселей
Высота : 576 пикселей
Соотношение сторон : 16: 9
Частота кадров : 25, 000 кадров/сек
Стандарт вещания : PAL
Цветовое пространство : YUV
Субдискретизация насыщенности : 4: 2: 0
Битовая глубина : 8 бит
Тип развёртки : Прогрессивная
Порядок развёртки : Нижнее поле первое
Метод сжатия : С потерями
Бит/(Пиксели*Кадры) : 0.393
Временной код первого кадра : 00: 00: 00: 00
Оригинал временного кода : Group of pictures t_head
Размер потока : 904 Мбайт (88%)
Аудио
Идентификатор : 189 (0xBD)-128 (0x80)
Формат : AC-3
Формат/Информация : Audio Coding 3
Расширение режима : CM (complete main)
Параметр Endianness формата : Big
Режим смешивания : DVD-Video
Продолжительность : 31 м.
Вид битрейта : Постоянный
Битрейт : 448 Кбит/сек
Каналы : 6 каналов
Расположение каналов : Front: L C R, Side: L R, LFE
Частота : 48, 0 КГц
Битовая глубина : 16 бит
Метод сжатия : С потерями
Размер потока : 99, 5 Мбайт (10%)
Меню
Доп. информация:
Исходник: Территория (2015) DVD9 | Лицензия
Удалены: предупреждающие надписи, DTS звуковая дорожка.
Видео сжато на 39, 0%. Внимательно смотрим сэмпл!
Меню: статичное, недействующие кнопки затерты и закрыты.
Использовались программы: DVD ReMake Pro + DVD Rebuilder + CCE SP2 7 проходов + Работа с меню (Adobe PhotoShop и MuxMan).
Скриншоты меню:

Скриншоты:

Залил: Саша 1992

Онлайн видео Легкие деньги


Размер скачиваемого торрента: 4.36 GB (4679178240 Bytes)

Территория (2015) DVD5
загрузка...
Рейтинг →
 (голосов: 1, оценка 5/5, голосовать можно 1 раз )

Другие торренты по теме:

  • В осаде 2: Тёмная Территория / Захват 2: Территория Тьмы / Under Siege 2: Dark Territory (1995) HDRip от Scarabey | P скачать через торрент бесплатно
  • В осаде 2: Тёмная Территория / Захват 2: Территория Тьмы / Under Siege 2: Dark Territory (1995) HDRip от Scarabey | P
  • Территория тьмы / Dusk-12 (2007) PC | Лицензия
  • Территория заблуждений с Игорем Прокопенко (2013) IPTVRip
  • Сборник - Территория Меломана. Зарубежный (2013) МР3
  • Южная Территория / Саутлэнд / Southland (2013) HDTVRip | Sub
  • Территория заблуждений с Игорем Прокопенко (2013) SATRip
  • Сборник - Территория модных хитов (2013) MP3


    • Комментарии (0):

      Информация

      Информация

        Посетители, находящиеся в группе Гости, не могут оставлять комментарии в данной новости.

        ↓ Меню



        ↓ Опрос

        А Вы добавили сайт в закладки?
        Да
        Не


        Top 10 за месяц (Фильмы)