.
Авторизация | Регистрация
» » Волчонок / Оборотень / Teen Wolf (2011-2014) WEB-DLRip от Generalfilm | КПК | Sony Sci-Fi скачать торрент бесплатно




    Волчонок / Оборотень / Teen Wolf (2011-2014) WEB-DLRip от Generalfilm | КПК | Sony Sci-Fi скачать торрент бесплатно

    Опубликовал: Админ | Дата: 14-06-2015, 21:02 | Просмотров: 125



    Детально о кино
    Русское название: Волчонок (Оборотень)
    Русское название в мировом прокате: Teen Wolf
    Создали в: 2011
    Категория жанра: Ужасы, триллер, драма, комедия
    Главный режиссер: Тим Эндрю, Рассел Малкэй, Тоби Уилкинс

    Актеры
    Тайлер Пози, Дилан О’Брайэн, Кристал Рид, Колтон Хэйнс, Эдди Уильямс, Мелисса Понцио, Холлэнд Роден, Тайлер Хехлин, ДжейАр Борн, Линден Эшби

    Сюжет фильма

    Скотт МакКолл, шестнадцатилетний подросток однажды ночью оказывается в лесу, где на него нападает и кусает большой таинственный зверь, напоминающий волка. Вскоре Скотт начинает замечать в себе некоторые изменения, такие как усиленный слух и сила, способность к быстрой регенерации и ускоренные рефлексы. С помощью своего лучшего друга Стайлза Стилински и загадочного оборотня Дерека Хэйла он должен научиться контролировать себя, чтобы суметь защитить свою семью, друзей и девушку Эллисон Арджент от Альфы, оборотня, который обратил его.

    Список серий:
    1 Сезон
    01. Пилот/Pilot
    02. Второй Шанс в нападении/Second Chance At First Line
    03. Заблуждение/Pack Mentality
    04. Волшебная пуля/Magic Bullet
    05. Беседа/The Tell
    06. Кардиомонитор/Heart Monitor
    07. Вечерняя школа/Night School
    08. Невменяемый/Lunatic
    09. Волчья отрава/Wolf;s Bane
    10. Со-капитан/Co-Captain
    11. Бал/Formality
    12. Нарушитель кодекса/Code Breaker
    2 Сезон
    01. Omega/Омега
    02. Shape Shifted/Неудачное обращение
    03. Ice Pick/Ледоруб
    04. Abomination/Мерзость
    05. Venomous/Ядовитый
    06. Frenemy/Друг и враг
    07. Restraint/Сдержанность
    08. Raving/Бред
    09. Party Guessed/Вечеринка Угадай, кто?
    10. Fury/Фурия
    11. Battlefield/Поле боя
    12. Master Plan/План хозяина
    3 Сезон
    01. Татуировка/Tattoo
    02. Возрастающий хаос/Chaos Rising
    03. Светлячки/Fireflies
    04. Спущенный с привязи/Unleashed
    05. Истрепанный/Frayed
    06. Мотель Калифорния/Motel California
    07. Потоки/Currents
    08. Провидец/Visionary
    09. Девушка, которая слишком много знала/The Girl Who Knew Too Much
    10. Упущенное из виду/The Overlooked
    11. Соглашение Альф/Alpha Pact
    12. Лунный эллипс/Lunar Ellipse
    13. Связь/Anchors
    14. Больше плохого, чем хорошего/More Bad Than Good
    15. Оживший/Galvanize
    16. Ультрафиолет/Illuminated
    17. Серебряннопалый/Silverfinger
    18. Загадывающий загадки/Riddled
    19. Летария волчья/Letharia Vulpina
    20. Дом Эха/Echo House
    21. Лиса и волк/The Fox and the Wolf
    22. Изгнание/De-Void
    23. Ненасытный/Insatiable
    24. Божественный ход/The Divine Move
    4 Сезон
    01. Темная Луна (англ. The Dark Moon)
    02. 117 (англ. 117)
    03. Безмолвный (англ. Muted)
    04. Благодетель (англ. The Benefactor)
    05. Расстройство прерывистой вспыльчивости (англ. I.E.D.)
    06. Сирота (англ. Orphaned)
    07. Вирус-убийца (англ. Weaponized)
    08. Время смерти (англ. Time of Death)
    09. Скоропортящийся (англ. Perishable)
    10. Обезображенный (англ. Monstrous)
    11. Обещание мертвым (англ. A Promise to the Dead)
    12.

    Снималось в: США
    Киностудия: MGM Television, Music Television (MTV)
    Время просмотра: 60 x ~ 00: 42: 00
    Перевод текста: Профессиональный (многоголосый) Sony Sci-Fi
    Файл
    Тип видео: MP4
    Качество фильма: WEB-DLRip | КПК
    Информация о видео: MPEG-4 AVC (x264), 640x360, ~500 kbps, 25.000 fps
    Информация о звуке: AAC LC, 44.1 KHz, 2 ch, 128 Kbps
    Субтитры: Нет
    Семпл
    Скриншоты

    MI
    Complete name : E: KinoVolchonok.AVC.WEB-DLRip.KPK.GeneralfilmVolchonok.S04.2014.AVC.WEB-DLRip.KPK.Sci-Fi.GeneralfilmVolchonok.s04e12.2014.AVC.WEB-DLRip.KPK.Sci-Fi.Generalfilm.mp4
    Format : MPEG-4
    Format profile : Base Media
    Codec ID : isom
    File size : 181 MiB
    Duration : 40mn 1s
    Overall bit rate mode : Variable
    Overall bit rate : 632 Kbps
    Encoded date : UTC 2015-06-05 20: 56: 35
    Tagged date : UTC 2015-06-05 20: 56: 35
    Video
    ID : 1
    Format : AVC
    Format/Info : Advanced Video Codec
    Format profile : High@L4.1
    Format settings, CABAC : Yes
    Format settings, ReFrames : 8 frames
    Codec ID : avc1
    Codec ID/Info : Advanced Video Coding
    Duration : 40mn 1s
    Bit rate : 500 Kbps
    Maximum bit rate : 1 830 Kbps
    Width : 640 pixels
    Height : 360 pixels
    Display aspect ratio : 16: 9
    Frame rate mode : Constant
    Frame rate : 25.000 fps
    Color space : YUV
    Chroma subsampling : 4: 2: 0
    Bit depth : 8 bits
    Scan type : Progressive
    Bits/(Pixel*Frame) : 0.087
    Stream size : 143 MiB (79%)
    Writing library : x264 core 130 r2273 b3065e6
    Encoding settings : cabac=1/ref=8/deblock=1: -2: -2/analyse=0x3: 0x133/me=umh/subme=10/psy=1/psy_rd=1.00: 0.00/mixed_ref=1/me_range=24/chroma_me=1/trellis=2/8x8dct=1/cqm=0/deadzone=21, 11/fast_pskip=1/chroma_qp_offset=-2/threads=12/lookahead_threads=2/sliced_threads=0/nr=0/decimate=0/interlaced=0/bluray_compat=0/constrained_intra=0/bframes=8/b_pyramid=2/b_adapt=2/b_bias=0/direct=3/weightb=1/open_gop=0/weightp=2/keyint=240/keyint_min=121/scenecut=40/intra_refresh=0/rc_lookahead=40/rc=2pass/mbtree=1/bitrate=500/ratetol=1.0/qcomp=0.60/qpmin=0/qpmax=69/qpstep=4/cplxblur=20.0/qblur=0.5/ip_ratio=1.40/aq=1: 1.00
    Encoded date : UTC 2015-06-05 20: 56: 35
    Tagged date : UTC 2015-06-05 20: 56: 39
    Audio
    ID : 2
    Format : AAC
    Format/Info : Advanced Audio Codec
    Format profile : LC
    Codec ID : 40
    Duration : 40mn 1s
    Bit rate mode : Variable
    Bit rate : 128 Kbps
    Maximum bit rate : 148 Kbps
    Channel(s) : 2 channels
    Channel positions : Front: L R
    Sampling rate : 48.0 KHz
    Compression mode : Lossy
    Stream size : 36.7 MiB (20%)
    Encoded date : UTC 2015-06-05 20: 56: 38
    Tagged date : UTC 2015-06-05 20: 56: 39

    Релиз подготовил:
    Залил: toys_watch

    Онлайн видео Волчонок


    Размер скачиваемого торрента: 11.04 GB (11850766408 Bytes)

    Волчонок/Оборотень/Teen Wolf (2011-2014) WEB-DLRip от Generalfilm | КПК | Sony Sci-Fi
    загрузка...
    Рейтинг →
     (голосов: 1, оценка 3/5, голосовать можно 1 раз )

    Другие торренты по теме:

  • Волчонок / Teen Wolf (2011-2012) WEB-DLRip | VO-production торрент скачать бесплатно
  • Волчонок / Teen Wolf (2013) HDTVRip | Alternative Production торрент скачать бесплатно
  • Волчонок / Teen Wolf (2013) WEB-DLRip | VO-production торрент скачать бесплатно
  • Волчонок / Teen Wolf (2013) WEB-DL 720p | VO-production торрент скачать бесплатно
  • Волчонок / Teen Wolf (2013-2014) HDTVRip | Alternative Production скачать через торрент бесплатно
  • Волчонок / Teen Wolf (2013-2014) WEB-DLRip | VO-production скачать через торрент бесплатно
  • Волчонок (Оборотень) / Teen Wolf (2011-2012) WEB-DLRip от Generalfilm | КПК | Sony Sci-Fi скачать через торрент бесплатно
  • Волчонок / Teen Wolf (2013-2014) WEB-DL 720р | VO-production торрент скачать бесплатно


    • Комментарии (0):

      Информация

      Информация

        Посетители, находящиеся в группе Гости, не могут оставлять комментарии в данной новости.

        ↓ Меню



        ↓ Опрос

        А Вы добавили сайт в закладки?
        Да
        Не


        Top 10 за неделю (Фильмы)