.
Авторизация | Регистрация
Хочешь лучшие торренты? Добавь свой email!
Добавить
» » Французский транзит / La French (2014) BDRip 1080p | Чистый звук торрент скачать бесплатно




    Французский транзит / La French (2014) BDRip 1080p | Чистый звук торрент скачать бесплатно

    Опубликовал: Админ | Дата: 14-06-2015, 21:05 | Просмотров: 141



    Детально о кино
    Категория жанра: Боевик, триллер, криминал
    Главный режиссер: Седрик Хименес

    В ролях
    Жан Дюжарден, Жиль Леллуш, Селин Саллетт, Мелани Дотей, Бенуа Мажимель, Гийом Гуи, Бруно Тодескини, Федор Аткин, Мусса Мааскри, Пьер Лопез
    Описание:
    Французский полицейский судья на протяжении многих лет пытается разобраться с одним из самых крупных наркосиндикатов.

    Дата мировой премьеры: 10 сентября 2014
    Дата российской премьеры: 28 мая 2015
    Создали в: Франция, Бельгия | Gaumont, Legende Films, France 2 Cin?ma
    Время просмотра: 02: 15: 36
    Перевод текста: Дублированный (чистый звук)
    Язык субтитров: Английский
    Вид субтитров: Вшитые (отключаемые)
    Файл
    Качество фильма видео: BDRip (1080p)
    Информация о видео: AVC/H.264, 1920x800, 8462 Кбит/с
    Информация о звуке #1: Русский, AC3, 2 ch, 384 kbps
    Информация о звуке #2: Французский, DTS, 6 ch, 768 kbps

    M/I
    Общее
    Уникальный идентификатор : 217300115823789870371912964504433027303 (0xA37A7AE12C965DEF949A15E129F168E7)
    Полное имя : C: NNMФранцузский транзитFrancuzskij tranzit 2014 BDRip 1080p.mkv
    Формат : Matroska
    Версия формата : Version 4/Version 2
    Размер файла : 8, 92 Гбайт
    Продолжительность : 2 ч. 15 м.
    Общий поток : 9418 Кбит/сек
    Программа кодирования : mkvmerge v6.5.0 (;Isn;t she lovely;) built on Oct 20 2013 12: 50: 05
    Библиотека кодирования : libebml v1.3.0 + libmatroska v1.4.1
    Видео
    Идентификатор : 1
    Формат : AVC
    Формат/Информация : Advanced Video Codec
    Профиль формата : High@L4.1
    Параметр CABAC формата : Да
    Параметр ReFrames формата : 5 кадров
    Идентификатор кодека : V_MPEG4/ISO/AVC
    Продолжительность : 2 ч. 15 м.
    Битрейт : 8462 Кбит/сек
    Ширина : 1920 пикселей
    Высота : 800 пикселей
    Соотношение сторон : 2, 40: 1
    Частота кадров : 24, 000 кадра/сек
    Цветовое пространство : YUV
    Субдискретизация насыщенности : 4: 2: 0
    Битовая глубина : 8 бит
    Тип развёртки : Прогрессивная
    Бит/(Пиксели*Кадры) : 0.230
    Размер потока : 7, 85 Гбайт (88%)
    Библиотека кодирования : x264 core 146 r2538 121396c
    Настройки программы : cabac=1/ref=5/deblock=1: 0: 0/analyse=0x3: 0x133/me=umh/subme=8/psy=1/psy_rd=1.00: 0.00/mixed_ref=1/me_range=16/chroma_me=1/trellis=1/8x8dct=1/cqm=0/deadzone=21, 11/fast_pskip=0/chroma_qp_offset=-2/threads=12/lookahead_threads=2/sliced_threads=0/nr=0/decimate=1/interlaced=0/bluray_compat=0/constrained_intra=0/bframes=3/b_pyramid=2/b_adapt=2/b_bias=0/direct=3/weightb=1/open_gop=0/weightp=2/keyint=250/keyint_min=24/scenecut=40/intra_refresh=0/rc_lookahead=50/rc=2pass/mbtree=1/bitrate=8462/ratetol=1.0/qcomp=0.60/qpmin=0/qpmax=69/qpstep=4/cplxblur=20.0/qblur=0.5/ip_ratio=1.40/aq=1: 1.00
    Язык : English
    Default : Да
    Forced : Нет
    Аудио #1
    Идентификатор : 2
    Формат : AC-3
    Формат/Информация : Audio Coding 3
    Расширение режима : CM (complete main)
    Идентификатор кодека : A_AC3
    Продолжительность : 2 ч. 15 м.
    Вид битрейта : Постоянный
    Битрейт : 192 Кбит/сек
    Каналы : 2 канала
    Расположение каналов : Front: L R
    Частота : 48, 0 КГц
    Битовая глубина : 16 бит
    Метод сжатия : С потерями
    Размер потока : 186 Мбайт (2%)
    Язык : Russian
    Default : Да
    Forced : Нет
    Аудио #2
    Идентификатор : 3
    Формат : DTS
    Формат/Информация : Digital Theater Systems
    Идентификатор кодека : A_DTS
    Продолжительность : 2 ч. 15 м.
    Вид битрейта : Постоянный
    Битрейт : 755 Кбит/сек
    Каналы : 6 каналов
    Расположение каналов : Front: L C R, Side: L R, LFE
    Частота : 48, 0 КГц
    Битовая глубина : 24 бит
    Метод сжатия : С потерями
    Размер потока : 732 Мбайт (8%)
    Заголовок : French
    Язык : French
    Default : Нет
    Forced : Нет
    Меню
    00: 00: 00.000 : en: 00: 00: 00.000
    00: 05: 07.292 : en: 00: 05: 07.292
    00: 12: 46.500 : en: 00: 12: 46.500
    00: 24: 42.500 : en: 00: 24: 42.500
    00: 38: 04.000 : en: 00: 38: 04.000
    00: 48: 09.500 : en: 00: 48: 09.500
    01: 01: 09.000 : en: 01: 01: 09.000
    01: 18: 36.500 : en: 01: 18: 36.500
    01: 35: 17.500 : en: 01: 35: 17.500
    01: 48: 13.000 : en: 01: 48: 13.000
    01: 59: 22.000 : en: 01: 59: 22.000
    02: 10: 06.000 : en: 02: 10: 06.000
    Скриншоты


    Онлайн видео Французский транзит


    Размер скачиваемого торрента: 8.92 GB (9577731005 Bytes)

    Французский транзит/La French (2014) BDRip 1080p | Чистый звук
    загрузка...
    Рейтинг →
     (голосов: 1, оценка 4/5, голосовать можно 1 раз )

    Другие торренты по теме:

  • Французский транзит (2014) HDRip
  • Французский транзит / La French (2014) HDRip | Звук с TS
  • Французский транзит / La French (2014) HDRip | Звук с TS
  • Французский транзит / La French (2014) HDRip | Чистый звук
  • Французский транзит / La French (2014) HDRip | Чистый звук
  • Французский транзит / La French (2014) HDRip-AVC от ExKinoRay | Чистый звук
  • Французский транзит / La French (2014) HDRip от Scarabey | Чистый звук
  • Французский транзит / La French (2014) HDRip от Scarabey | Чистый звук


    • Комментарии (0):

      Информация

      Информация

        Посетители, находящиеся в группе Гости, не могут оставлять комментарии в данной новости.

        ↓ Меню



        ↓ Опрос

        А Вы добавили сайт в закладки?
        Да
        Не


        Top 10 за месяц (Фильмы)