.
Авторизация | Регистрация
» » Секретарша / Secretary (2002) BDRip-AVC | D скачать торрент бесплатно




    Секретарша / Secretary (2002) BDRip-AVC | D скачать торрент бесплатно

    Опубликовал: Админ | Дата: 14-06-2015, 21:05 | Просмотров: 164



    Детально о кино
    Русское название: Секретарша
    Русское название в мировом прокате: Secretary
    Создали в: 2002
    Категория жанра: драма, мелодрама, комедия
    Главный режиссер: Стивен Шейнберг

    Актеры
    Джеймс Спэйдер, Мэгги Джилленхол, Джереми Дэвис, Лесли Энн Уоррен, Стивен МакХэтти, Патрик Бошо, Джессика Так, Оз Перкинс , Эми Локейн, Мэри Джой, Майкл Мэнтелл, Лили Найт

    Сюжет фильма

    В родной городок возвращается привлекательная девушка Ли Холловэй. Она страдает небольшими отклонениями в поведении, однако эти странности не мешают Ли устроиться на работу секретаршей к местному чудаковатому юристу мистеру Грэю.
    Для начала работа казалась вполне обычной: печатать, оформлять документы, приносить кофе и т. д., пока мистер Грей не заметил, что с грамматикой у девушки не все так хорошо, как хотелось бы. Вот тут-то и открывается дверь в тот самый мир, который Вы так часто себе представляете и начинается все самое интересное!

    Рейтинг R - Детям до 17 лет обязательно присутствие родителей
    Снималось в: США
    Время просмотра: 01: 51: 07
    Перевод текста: Дублированный
    Файл
    Тип видео: MKV
    Качество фильма: BDRip-AVC
    Информация о видео: MPEG-4 AVC, 1152х648, 23, 976 fps, ~2475 Kbps
    Информация о звуке #1: Russian : 48 kHz, AC3, 3/2 (L, C, R, l, r) + LFE ch, ~384 Kbps |Дубляж|
    Информация о звуке #2: English : 48 kHz, AC3, 3/2 (L, C, R, l, r) + LFE ch, ~448 Kbps
    Информация о звуке #3: English : 48 kHz, AC3, 2 ch, ~224 Kbps |Комментарий режиссера|
    Субтитры: Русские, Английские
    Сэмпл
    Скрытый текст
    Общее
    Уникальный идентификатор : 254026118471055535038877288373242459756 (0xBF1BA69C450BB206A89CBA49A4EA766C)
    Полное имя : D: ЗагрузкиSekretarsha.2002.BDRip-AVC.by.jlиС.mkv
    Формат : Matroska
    Версия формата : Version 2
    Размер файла : 2, 87 Гбайт
    Продолжительность : 1 ч. 51 м.
    Общий поток : 3692 Кбит/сек
    Название фильма : Секретарша/Secretary (2002) BDRip-AVC by jlиС
    Дата кодирования : UTC 2015-06-14 13: 28: 59
    Программа кодирования : mkvmerge v5.6.0 (;Kenya Kane;) built on May 27 2012 16: 44: 04
    Библиотека кодирования : libebml v1.2.3 + libmatroska v1.3.0
    Видео
    Идентификатор : 1
    Формат : AVC
    Формат/Информация : Advanced Video Codec
    Профиль формата : High@L4.1
    Параметр CABAC формата : Да
    Параметр ReFrames формата : 9 кадров
    Идентификатор кодека : V_MPEG4/ISO/AVC
    Продолжительность : 1 ч. 51 м.
    Битрейт : 2634 Кбит/сек
    Ширина : 1152 пикселя
    Высота : 648 пикселей
    Соотношение сторон : 16: 9
    Режим частоты кадров : Постоянный
    Частота кадров : 23, 976 кадра/сек
    Цветовое пространство : YUV
    Субдискретизация насыщенности : 4: 2: 0
    Битовая глубина : 8 бит
    Тип развёртки : Прогрессивная
    Бит/(Пиксели*Кадры) : 0.147
    Размер потока : 1, 99 Гбайт (69%)
    Заголовок : BDRip-AVC by jlиС
    Библиотека кодирования : x264 core 113 r1884 7313bb5
    Настройки программы : cabac=1/ref=9/deblock=1: -2: -1/analyse=0x3: 0x113/me=umh/subme=10/psy=1/psy_rd=1.00: 0.20/mixed_ref=1/me_range=32/chroma_me=1/trellis=2/8x8dct=1/cqm=0/deadzone=6, 6/fast_pskip=1/chroma_qp_offset=-3/threads=3/sliced_threads=0/nr=0/decimate=0/interlaced=0/constrained_intra=0/bframes=8/b_pyramid=2/b_adapt=2/b_bias=0/direct=3/weightb=1/open_gop=0/weightp=2/keyint=250/keyint_min=23/scenecut=45/intra_refresh=0/rc_lookahead=40/rc=2pass/mbtree=1/bitrate=2634/ratetol=1.0/qcomp=0.65/qpmin=0/qpmax=69/qpstep=4/cplxblur=20.0/qblur=0.5/vbv_maxrate=50000/vbv_bufsize=62500/nal_hrd=none/ip_ratio=1.10/aq=2: 0.50
    Default : Да
    Forced : Нет
    Коэффициенты матрицы : BT.709
    Аудио #1
    Идентификатор : 2
    Формат : AC-3
    Формат/Информация : Audio Coding 3
    Расширение режима : CM (complete main)
    Параметр Endianness формата : Big
    Идентификатор кодека : A_AC3
    Продолжительность : 1 ч. 51 м.
    Вид битрейта : Постоянный
    Битрейт : 384 Кбит/сек
    Каналы : 6 каналов
    Расположение каналов : Front: L C R, Side: L R, LFE
    Частота : 48, 0 КГц
    Битовая глубина : 16 бит
    Метод сжатия : С потерями
    Размер потока : 305 Мбайт (10%)
    Заголовок : Дублированный
    Язык : Russian
    Default : Да
    Forced : Нет
    Аудио #2
    Идентификатор : 3
    Формат : AC-3
    Формат/Информация : Audio Coding 3
    Расширение режима : CM (complete main)
    Параметр Endianness формата : Big
    Идентификатор кодека : A_AC3
    Продолжительность : 1 ч. 51 м.
    Вид битрейта : Постоянный
    Битрейт : 448 Кбит/сек
    Каналы : 6 каналов
    Расположение каналов : Front: L C R, Side: L R, LFE
    Частота : 48, 0 КГц
    Битовая глубина : 16 бит
    Метод сжатия : С потерями
    Размер потока : 356 Мбайт (12%)
    Заголовок : Original track
    Язык : English
    Default : Нет
    Forced : Нет
    Аудио #3
    Идентификатор : 4
    Формат : AC-3
    Формат/Информация : Audio Coding 3
    Профиль формата : Dolby Digital
    Расширение режима : CM (complete main)
    Параметр Endianness формата : Big
    Идентификатор кодека : A_AC3
    Продолжительность : 1 ч. 51 м.
    Вид битрейта : Постоянный
    Битрейт : 224 Кбит/сек
    Каналы : 2 канала
    Расположение каналов : Front: L R
    Частота : 48, 0 КГц
    Битовая глубина : 16 бит
    Метод сжатия : С потерями
    Размер потока : 178 Мбайт (6%)
    Заголовок : комментарий режиссера
    Язык : English
    Default : Нет
    Forced : Нет
    Текст #1
    Идентификатор : 5
    Формат : UTF-8
    Идентификатор кодека : S_TEXT/UTF8
    Идентификатор кодека/Информация : UTF-8 Plain Text
    Язык : Russian
    Default : Нет
    Forced : Нет
    Текст #2
    Идентификатор : 6
    Формат : UTF-8
    Идентификатор кодека : S_TEXT/UTF8
    Идентификатор кодека/Информация : UTF-8 Plain Text
    Язык : English
    Default : Нет
    Forced : Нет

    Скриншоты



    Релиз подготовил:

    Онлайн видео Секретарша


    Размер скачиваемого торрента: 2.87 GB (3077273841 Bytes)

    Секретарша/Secretary (2002) BDRip-AVC | D
    загрузка...
    Рейтинг →
     (голосов: 1, оценка 4/5, голосовать можно 1 раз )

    Другие торренты по теме:

  • Секретарша / Secretary (2002) HDRip от Scarabey | D торрент скачать бесплатно
  • Секретарша / Secretary (2002) HDRip от Scarabey | D торрент скачать бесплатно
  • Временная секретарша / The Temp (1993) DVDRip от FilmRus | P2 торрент скачать бесплатно
  • Временная секретарша / Заместитель / The Temp (1993) DVDRip от ExKinoRay | P2, A торрент скачать бесплатно
  • Моя дорогая секретарша / My Dear Secretary (1948) DVDRip от egoleshik | P2 скачать торрент бесплатно
  • Временная секретарша (Заместитель) / The Temp / 1993 / ПМ, ПД, АП (Пронин) / WEB-DL (720p) скачать торрент бесплатно
  • Жена против секретарши / Wife vs. Secretary / 1936 / ПМ / DVDRip скачать торрент бесплатно
  • Жена против секретарши / Wife vs. Secretary / 1936 / ПМ / DVD-5 скачать торрент бесплатно


    • Комментарии (0):

      Информация

      Информация

        Посетители, находящиеся в группе Гости, не могут оставлять комментарии в данной новости.

        ↓ Меню



        ↓ Опрос

        А Вы добавили сайт в закладки?
        Да
        Не


        Top 10 за неделю (Фильмы)