.
Авторизация | Регистрация
» » Спираль / Helix (2014-2015) HDRip, WEB-DLRip от Generalfilm | КПК | LostFilm скачать торрент бесплатно




    Спираль / Helix (2014-2015) HDRip, WEB-DLRip от Generalfilm | КПК | LostFilm скачать торрент бесплатно

    Опубликовал: Админ | Дата: 15-06-2015, 03:06 | Просмотров: 83



    Детально о кино
    Русское название: Спираль
    Русское название в мировом прокате: Helix
    Создали в: 2014
    Категория жанра: Фантастика, триллер
    Главный режиссер: Дуан Кларк, Майк Рол, Брэд Тёрнер

    Актеры
    Билл Кэмпбелл, Джордан Хэйес, Кира Загорский, Марк Ганиме, Хироюки Санада, Нил Напье, Лучана Карро, Джулиан Кэйси, Кристиан Джада

    Сюжет фильма

    Смертельный вирус, оказывающий небывалое разрушительное воздействие на организм человека, косит ряды учёных исследовательской базы в Арктике. Группа учёных из Центра по Контролю за Заболеваниями направлена туда расследовать причины эпидемии, и в результате вынуждена вести борьбу за спасение всего человечества.

    Список серий:
    Сезон 1
    01. Пилот/Pilot
    02. Переносчик/Vector
    03. 274/274
    04. Одиночная нить/Single Strand
    05. Белая комната/The White Room
    06. Родство/Aniqatiga
    07. Нулевой выживший/Survivor Zero
    08. Родословная/Bloodline
    09. Уровень Экс/Level X
    10. Загадка/Fushigi
    11. Чёрный дождь/Black Rain
    12 Жатва/The Reaping
    13 В тени/Dans L;Ombre
    Сезон 2
    01. Сан-Хосе (San Jose)
    02. Воссоединение (Reunion)
    03. Побег (Scion)
    04. Наследие (Densho)
    05. Ублиет (Oubliette)
    06. Яблоня домашняя (M. Domestica)
    07. Перекрёстное опыление (Cross-Pollination)
    08. Иди с миром (Vade In Pace)
    09. Эктогенез (Ectogenesis)
    10. Мать (Mother)
    11. План Б (Plan B)
    12. Преемник (The Ascendant)
    13. О храбрый новый мир (O Brave New World)

    Снималось в: США
    Киностудия: Lynda Obst Productions, Muse Entertainment Enterprises, Sony Pictures Television
    Время просмотра: 26 x ~ 00: 42: 00
    Перевод текста: Профессиональный (многоголосый, закадровый) LostFilm
    Файл
    Тип видео: MP4
    Качество фильма: HDRip 1-й Сезон, WEB-DLRip 2-й Сезон | КПК
    Информация о видео: MPEG-4 AVC (x264), 640x360, ~500 kbps, 23.976 fps
    Информация о звуке: AAC LC, 48.0 KHz, 2 ch, 128 Kbps
    Субтитры: Нет
    Семпл
    Скриншоты

    MI
    Complete name : E: KinoSpiral;.AVC.KPK.LF.GeneralfilmSpiral;.S01.2014.AVC.HDRip.KPK.LF.GeneralfilmSpiral;.s01e06.2014.AVC.HDRip.KPK.LF.Generalfilm.mp4
    Format : MPEG-4
    Format profile : Base Media
    Codec ID : isom
    File size : 189 MiB
    Duration : 41mn 47s
    Overall bit rate mode : Variable
    Overall bit rate : 632 Kbps
    Encoded date : UTC 2015-06-04 21: 00: 17
    Tagged date : UTC 2015-06-04 21: 00: 17
    Video
    ID : 1
    Format : AVC
    Format/Info : Advanced Video Codec
    Format profile : High@L4.1
    Format settings, CABAC : Yes
    Format settings, ReFrames : 8 frames
    Codec ID : avc1
    Codec ID/Info : Advanced Video Coding
    Duration : 41mn 47s
    Bit rate : 500 Kbps
    Maximum bit rate : 2 968 Kbps
    Width : 640 pixels
    Height : 360 pixels
    Display aspect ratio : 16: 9
    Frame rate mode : Constant
    Frame rate : 23.976 fps
    Color space : YUV
    Chroma subsampling : 4: 2: 0
    Bit depth : 8 bits
    Scan type : Progressive
    Bits/(Pixel*Frame) : 0.091
    Stream size : 149 MiB (79%)
    Writing library : x264 core 130 r2273 b3065e6
    Encoding settings : cabac=1/ref=8/deblock=1: -2: -2/analyse=0x3: 0x133/me=umh/subme=10/psy=1/psy_rd=1.00: 0.00/mixed_ref=1/me_range=24/chroma_me=1/trellis=2/8x8dct=1/cqm=0/deadzone=21, 11/fast_pskip=1/chroma_qp_offset=-2/threads=12/lookahead_threads=2/sliced_threads=0/nr=0/decimate=0/interlaced=0/bluray_compat=0/constrained_intra=0/bframes=8/b_pyramid=2/b_adapt=2/b_bias=0/direct=3/weightb=1/open_gop=0/weightp=2/keyint=240/keyint_min=121/scenecut=40/intra_refresh=0/rc_lookahead=40/rc=2pass/mbtree=1/bitrate=500/ratetol=1.0/qcomp=0.60/qpmin=0/qpmax=69/qpstep=4/cplxblur=20.0/qblur=0.5/ip_ratio=1.40/aq=1: 1.00
    Encoded date : UTC 2015-06-04 21: 00: 17
    Tagged date : UTC 2015-06-04 21: 00: 21
    Audio
    ID : 2
    Format : AAC
    Format/Info : Advanced Audio Codec
    Format profile : LC
    Codec ID : 40
    Duration : 41mn 47s
    Bit rate mode : Variable
    Bit rate : 128 Kbps
    Maximum bit rate : 147 Kbps
    Channel(s) : 2 channels
    Channel positions : Front: L R
    Sampling rate : 48.0 KHz
    Compression mode : Lossy
    Stream size : 38.2 MiB (20%)
    Encoded date : UTC 2015-06-04 21: 00: 20
    Tagged date : UTC 2015-06-04 21: 00: 21

    Релиз подготовил:
    Залил: toys_watch

    Онлайн видео Спираль


    Размер скачиваемого торрента: 4.77 GB (5117223167 Bytes)

    Спираль/Helix (2014-2015) HDRip, WEB-DLRip от Generalfilm | КПК | LostFilm
    загрузка...
    Рейтинг →
     (голосов: 1, оценка 3/5, голосовать можно 1 раз )

    Другие торренты по теме:

  • Граница пустоты: Сад грешников (фильм пятый) - Спираль парадокса / Mujun Rasen (2008) HDRip от Scarabey | Р торрент скачать бесплатно


    • Комментарии (0):

      Информация

      Информация

        Посетители, находящиеся в группе Гости, не могут оставлять комментарии в данной новости.

        ↓ Меню



        ↓ Опрос

        А Вы добавили сайт в закладки?
        Да
        Не


        Top 10 за неделю (Фильмы)