.
Авторизация | Регистрация
Хочешь лучшие торренты? Добавь свой email!
Добавить
» » Перевозчик: Наследие / The Transporter Refueled (2015) WEBRip 1080p | Трейлер торрент скачать бесплатно




    Перевозчик: Наследие / The Transporter Refueled (2015) WEBRip 1080p | Трейлер торрент скачать бесплатно

    Опубликовал: Админ | Дата: 15-06-2015, 15:02 | Просмотров: 445



    Создали в: 2015
    Создали в: Франция, Китай
    Категория жанра: боевик, триллер, криминал
    Перевод текста: Дублированный
    Главный режиссер: Камиль Деламарр
    Продюсеры: Люк Бессон
    Актеры: Эд Скрейн, Лоан Шабаноль, Рэй Стивенсон, Ленн Кудрявицки, Татьяна Пайкович, Радивойе Буквич, Микаэл Бакстон, Седрик Шевальм, Mathieu Lardot, Робби Нок
    Описание фильма:
    Фрэнк Мартин — самый высококвалифицированный перевозчик, которого только можно нанять за деньги. Ставки выше, технологии поднялись на более высокий уровень, но правила те же: никогда не изменять условия сделки, никаких имен и никогда не открывать груз.
    Когда Фрэнка нанимает хитроумная красотка Анна и ее три очаровательные сообщницы, он быстро выясняет, что его водят за нос. Анна и ее команда похитили его отца, чтобы заставить Фрэнка помочь им разобраться с группой безжалостных торговцев людьми.
    Дата мировой премьеры: 18 июня 2015
    Дата российской премьеры: 10 сентября 2015

    Время просмотра: 00: 01: 35
    Качество фильма видео: WEBRip
    Информация о видеокодек: MPEG-4 AVC/H.264
    Битрейт видео: 7909 Кбит/сек
    Размер скачиваемого торрента кадра: 1920x804
    Информация о звукекодек: AAC
    Битрейт аудио: 126 Кбит/сек
    MediaInfo:

    Общее
    Полное имя : Transporter-Refueled.mp4
    Формат : MPEG-4
    Профиль формата : Base Media
    Идентификатор кодека : isom
    Размер файла : 91, 4 Мбайт
    Продолжительность : 1 м. 35 с.
    Режим общего битрейта : Переменный
    Общий поток : 8040 Кбит/сек
    Дата кодирования : UTC 2015-06-11 10: 22: 56
    Дата пометки : UTC 2015-06-11 10: 22: 56
    Программа кодирования : Lavf51.12.1
    Видео
    Идентификатор : 1
    Формат : AVC
    Формат/Информация : Advanced Video Codec
    Профиль формата : Baseline@L4
    Параметр CABAC формата : Нет
    Параметр ReFrames формата : 1 кадр
    Параметр GOP формата : M=1, N=12
    Идентификатор кодека : avc1
    Идентификатор кодека/Информация : Advanced Video Coding
    Продолжительность : 1 м. 35 с.
    Битрейт : 7909 Кбит/сек
    Ширина : 1920 пикселей
    Высота : 804 пикселя
    Соотношение сторон : 2, 40: 1
    Режим частоты кадров : Постоянный
    Частота кадров : 24, 000 кадра/сек
    Цветовое пространство : YUV
    Субдискретизация насыщенности : 4: 2: 0
    Битовая глубина : 8 бит
    Тип развёртки : Прогрессивная
    Бит/(Пиксели*Кадры) : 0.213
    Размер потока : 89, 9 Мбайт (98%)
    Дата кодирования : UTC 2015-06-11 10: 22: 56
    Дата пометки : UTC 2015-06-11 10: 22: 56
    Аудио
    Идентификатор : 2
    Формат : AAC
    Формат/Информация : Advanced Audio Codec
    Профиль формата : LC
    Идентификатор кодека : 40
    Продолжительность : 1 м. 35 с.
    Вид битрейта : Переменный
    Битрейт : 126 Кбит/сек
    Каналы : 2 канала
    Расположение каналов : Front: L R
    Частота : 48, 0 КГц
    Метод сжатия : С потерями
    Размер потока : 1, 44 Мбайт (2%)
    Дата кодирования : UTC 2015-06-11 10: 22: 56
    Дата пометки : UTC 2015-06-11 10: 22: 56

    Скриншоты



    Скриншоты



    Залил: Jokerzv

    Онлайн видео Перевозчик: Наследие


    Размер скачиваемого торрента: 91.41 MB (95855396 Bytes)

    Перевозчик: Наследие/The Transporter Refueled (2015) WEBRip 1080p | Трейлер
    загрузка...
    Рейтинг →
     (голосов: 1, оценка 4/5, голосовать можно 1 раз )

    Другие торренты по теме:

  • Перевозчик: Наследие (2015) HDRip лицензия
  • Перевозчик: Наследие / The Transporter Refueled (2015) HDRip-AVC от R.G.Resident | Чистый звук
  • Перевозчик: Наследие / The Transporter Refueled (2015) BDRip-AVC | Чистый звук
  • Перевозчик: Наследие / The Transporter Refueled / 2015 / ДБ (Line) / HDRip
  • Перевозчик: Наследие / The Transporter Refueled / 2015 / ДБ (Line) / HDRip
  • Перевозчик: Наследие / The Transporter Refueled (2015) BDRip 1080p от ExKinoRay | Лицензия
  • Перевозчик: Наследие / The Transporter Refueled (2015) BDRip-AVC от New-Team | Лицензия
  • Перевозчик: Наследие / The Transporter Refueled (2015) BDRip | D | Лицензия


    • Комментарии (0):

      Информация

      Информация

        Посетители, находящиеся в группе Гости, не могут оставлять комментарии в данной новости.

        ↓ Меню



        ↓ Опрос

        А Вы добавили сайт в закладки?
        Да
        Не


        Top 10 за месяц (Фильмы)