.
Авторизация | Регистрация
» » Золушка / Cinderella (2015) WEBRip 1080p | Чистый звук скачать торрент бесплатно




    Золушка / Cinderella (2015) WEBRip 1080p | Чистый звук скачать торрент бесплатно

    Опубликовал: Админ | Дата: 15-06-2015, 15:03 | Просмотров: 112



    Детально о кино
    Русское название: Золушка
    Русское название в мировом прокате: Cinderella
    Создали в: 2015
    Категория жанра: Фэнтези, драма, мелодрама, приключения, семейный
    Главный режиссер: Кеннет Брана

    Актеры
    Лили Джеймс, Кейт Бланшетт, Ричард Мэдден, Хелена Бонем Картер , Нонсо Анози, Стеллан Скарсгард, Софи МакШера, Холлидей Грейнджер, Дерек Джекоби, Бен Чаплин

    Сюжет фильма
    Отец молодой девушки по имени Элла, овдовев, женится во второй раз, и вскоре Элла оказывается один на один с жадными и завистливыми новыми родственницами — мачехой Леди Тремэйн и ее дочерьми — Анастасией и Дризеллой. Из хозяйки дома она превращается в служанку, вечно испачканную золой, за что и получает от своих сварливых сводных сестриц прозвище — Золушка. Несмотря на злоключения, выпавшие на ее долю, Золушка не отчаивается, ведь даже в самые тяжелые моменты находится что-то, что помогает ей думать о хорошем: например, случайная встреча на лесной тропинке с прекрасным юношей. Элла даже не предполагает, что встретилась с самим принцем, и что вскоре Фея-крестная навсегда поменяет её жизнь к лучшему.

    Релиз подготовил:
    Снималось в: США/Allison Shearmur Productions, Beagle Pug Films, Genre Films
    Время просмотра: 01: 40: 59
    Тип перевода: Дублированное Чистый звук
    Примечание: Присутствуют 6 минут вставок звука с TS и неотключаемые корейские субтитры!
    Файл
    Тип видео: MKV
    Качество фильма: WEBRip 1080p
    Информация о видео: MPEG4/AVC, 9646 Кбит/сек, 1920х1080 (16: 9), 25.000 кадров/сек
    Информация о звуке 1: AC3, 2 канала, 192 Кбит/сек | Русский
    Информация о звуке 2: AC3, 2 канала, 192 Кбит/сек | Английский
    Субтитры: Азиатские (вшитые, не отключаемые)
    Размер скачиваемого торрента: 7.21 GB
    Скачать: Сэмпл
    Media Info
    Общее
    Уникальный идентификатор : 183828222881756393168875129093347151697 (0x8A4C0724EC39C069AB4EB9340ED10F51)
    Полное имя : Cinderella. (2015) HDTV 1080p.mkv
    Формат : Matroska
    Версия формата : Version 2
    Размер файла : 7, 22 Гбайт
    Продолжительность : 1 ч. 40 м.
    Общий поток : 10, 2 Мбит/сек
    Название фильма : Cinderella. 2015
    Дата кодирования : UTC 2015-06-14 15: 07: 18
    Программа кодирования : mkvmerge v5.8.0 (;No Sleep/Pillow;) built on Sep 2 2012 15: 37: 04
    Библиотека кодирования : libebml v1.2.3 + libmatroska v1.3.0
    Видео
    Идентификатор : 1
    Формат : AVC/AVC
    Формат/Информация : Advanced Video Codec
    Профиль формата : High@L4.0/High@L4.0
    Параметр CABAC формата : Нет
    Параметр ReFrames формата : 4 кадра/1 кадр
    Параметр GOP формата : M=1, N=30/M=1, N=30
    Идентификатор кодека : V_MPEG4/ISO/AVC
    Продолжительность : 1 ч. 40 м.
    Вид битрейта : Переменный/Переменный
    Битрейт : 9646 Кбит/сек
    Максимальный битрейт : 40, 0 Мбит/сек/40, 0 Мбит/сек
    Ширина : 1920 пикселей
    Ширина оригинала : 1920 пикселей/1920 пикселей
    Высота : 1080 пикселей
    Высота оригинала : 1080 пикселей/1080 пикселей
    Соотношение сторон : 16: 9
    Режим частоты кадров : Постоянный
    Частота кадров : 25, 000 кадров/сек
    Частота кадров в оригинале : 25, 000 кадров/сек/25, 000 кадров/сек
    Стандарт вещания : PAL/PAL
    Цветовое пространство : YUV/YUV
    Субдискретизация насыщенности : 4: 2: 0/4: 2: 0
    Битовая глубина : 8 бит/8 бит
    Тип развёртки : Прогрессивная/Progressive
    Бит/(Пиксели*Кадры) : 0.186
    Размер потока : 6, 80 Гбайт (94%)
    Заголовок : OneHD
    Язык : English
    Default : Да
    Forced : Нет
    Основные цвета : BT.601 NTSC/BT.601 NTSC
    Характеристики трансфера : BT.601/BT.601
    Коэффициенты матрицы : BT.601/BT.601
    Аудио #1
    Идентификатор : 2
    Формат : AC-3
    Формат/Информация : Audio Coding 3
    Расширение режима : CM (complete main)
    Параметр Endianness формата : Big
    Идентификатор кодека : A_AC3
    Продолжительность : 1 ч. 40 м.
    Вид битрейта : Постоянный
    Битрейт : 192 Кбит/сек
    Каналы : 2 канала
    Расположение каналов : Front: L R
    Частота : 48, 0 КГц
    Битовая глубина : 16 бит
    Метод сжатия : С потерями
    Размер потока : 139 Мбайт (2%)
    Заголовок : DUB | Line
    Язык : Russian
    Default : Да
    Forced : Нет
    Аудио #2
    Идентификатор : 3
    Формат : AC-3
    Формат/Информация : Audio Coding 3
    Расширение режима : CM (complete main)
    Параметр Endianness формата : Big
    Идентификатор кодека : A_AC3
    Продолжительность : 1 ч. 40 м.
    Вид битрейта : Постоянный
    Битрейт : 192 Кбит/сек
    Каналы : 2 канала
    Расположение каналов : Front: L R
    Частота : 48, 0 КГц
    Битовая глубина : 16 бит
    Метод сжатия : С потерями
    Размер потока : 139 Мбайт (2%)
    Заголовок : Original
    Язык : English
    Default : Нет
    Forced : Нет

    Скриншоты


    Залил: ~Relizer~

    Онлайн видео Золушка


    Размер скачиваемого торрента: 7.22 GB (7751198593 Bytes)

    Золушка/Cinderella (2015) WEBRip 1080p | Чистый звук
    загрузка...
    Рейтинг →
     (голосов: 1, оценка 4/5, голосовать можно 1 раз )

    Другие торренты по теме:



      Комментарии (0):

      Информация

      Информация

        Посетители, находящиеся в группе Гости, не могут оставлять комментарии в данной новости.

        ↓ Меню



        ↓ Опрос

        А Вы добавили сайт в закладки?
        Да
        Не


        Top 10 за неделю (Фильмы)