.
Авторизация | Регистрация
» » Социальная сеть / The Social Network (2010) BDRip 1080p от HDTracker | D, A скачать торрент бесплатно




    Социальная сеть / The Social Network (2010) BDRip 1080p от HDTracker | D, A скачать торрент бесплатно

    Опубликовал: Админ | Дата: 16-06-2015, 00:01 | Просмотров: 149



    Детально о кино
    Русское название: Социальная сеть
    Русское название в мировом прокате: The Social Network
    Создали в: 2010
    Категория жанра: драма, биография
    Главный режиссер: Дэвид Финчер

    Актеры
    Джесси Айзенберг, Эндрю Гарфилд, Джастин Тимберлэйк, Арми Хаммер, Макс Мингелла, Рашида Джонс, Бренда Сонг, Руни Мара, Брайан Бартер, Джозеф Маццелло

    Сюжет фильма

    В фильме рассказывается история создания одной из самых популярных в Интернете социальных сетей — Facebook. Оглушительный успех этой сети среди пользователей по всему миру навсегда изменил жизнь студентов-однокурсников гарвардского университета, которые основали ее в 2004 году и за несколько лет стали самыми молодыми мультимиллионерами в США.

    Снималось в: США
    Киностудия: Columbia Pictures, Michael De Luca Productions, Relativity Media
    Время просмотра: 02: 00: 27
    Перевод текста: Авторский (Сергей Визгунов) + Авторский (Андрей Дольский) + Авторский (Александр Дасевич) + Профессиональный (дублированный) Blu-ray CEE
    Релиз:
    Файл
    Тип видео: Matroska
    Информация о видео: 1920x798 at 23.976 fps, x264@L4.1, ~7000 kbps avg
    Aудио#1: English: 48 kHz, DTS, 3/2 (L, C, R, l, r) + LFE ch, ~1509 kbps avg
    Aудио#2: Russian: 48 kHz, DTS, 3/2 (L, C, R, l, r) + LFE ch, ~1509 kbps avg |Авторский, С.Визгунов|
    Aудио#3: Russian: 48 kHz, AC3, 3/2 (L, C, R, l, r) + LFE ch, ~448 kbps avg |Авторский, А.Дольский|
    Aудио#4: Russian: 48 kHz, AC3, 3/2 (L, C, R, l, r) + LFE ch, ~448 kbps avg |Авторский, А.Дасевич|
    Aудио#5: Russian: 48 kHz, AC3, 3/2 (L, C, R, l, r) + LFE ch, ~640 kbps avg |Дубляж, Blu-ray CEE|
    Субтитры: Russian (Forced), Russian (Full), Russian (Jeketeur), English, English (SDH)
    MI
    General
    Unique ID : 233439858563174038381212308061145653345 (0xAF9EE1A240C271A5ABB79013D91DE061)
    Complete name : The.Social.Network.2010.1080p.HDTracker.mkv
    Format : Matroska
    Format version : Version 4/Version 2
    File size : 9.73 GiB
    Duration : 2h 0mn
    Overall bit rate : 11.6 Mbps
    Encoded date : UTC 2015-06-15 06: 41: 13
    Writing application : mkvmerge v7.9.0 (;Birds;) 64bit
    Writing library : libebml v1.3.1 + libmatroska v1.4.2
    Video
    ID : 1
    Format : AVC
    Format/Info : Advanced Video Codec
    Format profile : High@L4.1
    Format settings, CABAC : Yes
    Format settings, ReFrames : 5 frames
    Codec ID : V_MPEG4/ISO/AVC
    Duration : 2h 0mn
    Bit rate : 7 000 Kbps
    Width : 1 920 pixels
    Height : 798 pixels
    Display aspect ratio : 2.40: 1
    Frame rate mode : Constant
    Frame rate : 23.976 fps
    Color space : YUV
    Chroma subsampling : 4: 2: 0
    Bit depth : 8 bits
    Scan type : Progressive
    Bits/(Pixel*Frame) : 0.191
    Stream size : 5.70 GiB (59%)
    Title : The Social Network (2010)
    Writing library : x264 core 110 r1804 e89c4cf
    Encoding settings : cabac=1/ref=5/deblock=1: -3: -3/analyse=0x3: 0x133/me=tesa/subme=10/psy=1/psy_rd=0.85: 0.00/mixed_ref=1/me_range=32/chroma_me=1/trellis=2/8x8dct=1/cqm=0/deadzone=21, 11/fast_pskip=0/chroma_qp_offset=-2/threads=12/sliced_threads=0/nr=0/decimate=0/interlaced=0/constrained_intra=0/bframes=6/b_pyramid=2/b_adapt=2/b_bias=0/direct=3/weightb=1/open_gop=0/weightp=2/keyint=250/keyint_min=23/scenecut=40/intra_refresh=0/rc_lookahead=40/rc=2pass/mbtree=1/bitrate=7000/ratetol=1.0/qcomp=0.60/qpmin=0/qpmax=51/qpstep=4/cplxblur=20.0/qblur=0.5/ip_ratio=1.40/aq=1: 0.80
    Language : English
    Default : Yes
    Forced : No
    Audio #1
    ID : 2
    Format : DTS
    Format/Info : Digital Theater Systems
    Mode : 16
    Format settings, Endianness : Big
    Codec ID : A_DTS
    Duration : 2h 0mn
    Bit rate mode : Constant
    Bit rate : 1 509 Kbps
    Channel(s) : 6 channels
    Channel positions : Front: L C R, Side: L R, LFE
    Sampling rate : 48.0 KHz
    Bit depth : 24 bits
    Compression mode : Lossy
    Stream size : 1.27 GiB (13%)
    Language : English
    Default : No
    Forced : No
    Audio #2
    ID : 3
    Format : DTS
    Format/Info : Digital Theater Systems
    Mode : 16
    Format settings, Endianness : Big
    Codec ID : A_DTS
    Duration : 2h 0mn
    Bit rate mode : Constant
    Bit rate : 1 509 Kbps
    Channel(s) : 6 channels
    Channel positions : Front: L C R, Side: L R, LFE
    Sampling rate : 48.0 KHz
    Bit depth : 24 bits
    Compression mode : Lossy
    Stream size : 1.27 GiB (13%)
    Title : Визгунов
    Language : Russian
    Default : Yes
    Forced : Yes
    Audio #3
    ID : 4
    Format : AC-3
    Format/Info : Audio Coding 3
    Mode extension : CM (complete main)
    Format settings, Endianness : Big
    Codec ID : A_AC3
    Duration : 2h 0mn
    Bit rate mode : Constant
    Bit rate : 448 Kbps
    Channel(s) : 6 channels
    Channel positions : Front: L C R, Side: L R, LFE
    Sampling rate : 48.0 KHz
    Bit depth : 16 bits
    Compression mode : Lossy
    Stream size : 386 MiB (4%)
    Title : Дольский
    Language : Russian
    Default : No
    Forced : No
    Audio #4
    ID : 5
    Format : AC-3
    Format/Info : Audio Coding 3
    Mode extension : CM (complete main)
    Format settings, Endianness : Big
    Codec ID : A_AC3
    Duration : 2h 0mn
    Bit rate mode : Constant
    Bit rate : 448 Kbps
    Channel(s) : 6 channels
    Channel positions : Front: L C R, Side: L R, LFE
    Sampling rate : 48.0 KHz
    Bit depth : 16 bits
    Compression mode : Lossy
    Stream size : 386 MiB (4%)
    Title : Дасевич
    Language : Russian
    Default : No
    Forced : No
    Audio #5
    ID : 6
    Format : AC-3
    Format/Info : Audio Coding 3
    Mode extension : CM (complete main)
    Format settings, Endianness : Big
    Codec ID : A_AC3
    Duration : 2h 0mn
    Bit rate mode : Constant
    Bit rate : 640 Kbps
    Channel(s) : 6 channels
    Channel positions : Front: L C R, Side: L R, LFE
    Sampling rate : 48.0 KHz
    Bit depth : 16 bits
    Compression mode : Lossy
    Stream size : 551 MiB (6%)
    Title : Дубляж, Blu-ray CEE
    Language : Russian
    Default : No
    Forced : No
    Text #1
    ID : 7
    Format : UTF-8
    Codec ID : S_TEXT/UTF8
    Codec ID/Info : UTF-8 Plain Text
    Title : Forced
    Language : Russian
    Default : Yes
    Forced : Yes
    Text #2
    ID : 8
    Format : UTF-8
    Codec ID : S_TEXT/UTF8
    Codec ID/Info : UTF-8 Plain Text
    Title : Full
    Language : Russian
    Default : No
    Forced : No
    Text #3
    ID : 9
    Format : UTF-8
    Codec ID : S_TEXT/UTF8
    Codec ID/Info : UTF-8 Plain Text
    Title : Jeketeur
    Language : Russian
    Default : No
    Forced : No
    Text #4
    ID : 10
    Format : UTF-8
    Codec ID : S_TEXT/UTF8
    Codec ID/Info : UTF-8 Plain Text
    Title : Full
    Language : English
    Default : No
    Forced : No
    Text #5
    ID : 11
    Format : UTF-8
    Codec ID : S_TEXT/UTF8
    Codec ID/Info : UTF-8 Plain Text
    Title : SDH
    Language : English
    Default : No
    Forced : No
    Menu
    00: 00: 00.000 : en: Chapter 1
    00: 07: 33.411 : en: Chapter 2
    00: 17: 15.409 : en: Chapter 3
    00: 24: 20.000 : en: Chapter 4
    00: 31: 07.115 : en: Chapter 5
    00: 34: 47.502 : en: Chapter 6
    00: 44: 27.164 : en: Chapter 7
    00: 50: 54.301 : en: Chapter 8
    00: 55: 39.252 : en: Chapter 9
    01: 00: 15.612 : en: Chapter 10
    01: 11: 41.130 : en: Chapter 11
    01: 18: 29.496 : en: Chapter 12
    01: 24: 22.474 : en: Chapter 13
    01: 33: 16.966 : en: Chapter 14
    01: 38: 04.086 : en: Chapter 15
    01: 47: 09.714 : en: Chapter 16
    Скриншоты


    Онлайн видео Социальная сеть


    Размер скачиваемого торрента: 9.73 GB (10442347105 Bytes)

    Социальная сеть/The Social Network (2010) BDRip 1080p от HDTracker | D, A
    загрузка...
    Рейтинг →
     (голосов: 1, оценка 3/5, голосовать можно 1 раз )

    Другие торренты по теме:

  • Социальная сеть / The Social Network (2010) HDRip от YouTracker торрент скачать бесплатно
  • Госдеп - 3 с Ксенией Собчак. Социальные сети: свобода или смерть Алексей Митрофанов и Иван Засурский (2013) SATRip от РиперАМ торрент скачать бесплатно
  • Социальная сеть / The Social Network (2010) BDRip 1080p торрент скачать бесплатно
  • Социальная сеть / The Social Network (2010) HDRip от Scarabey | D торрент скачать бесплатно
  • Социальная сеть / The Social Network (2010) BDRip 720p скачать через торрент бесплатно
  • Анти-Социальная Сеть / The Anti-Social Network (2011) WEBrip 720p | Точка Zрения скачать через торрент бесплатно
  • Социальная сеть / The Social Network (2010) BDRip 720p от Leonardo and Scarabey скачать через торрент бесплатно
  • Бах, Моцарт, Вивальди, Бетховен, Шопен / Bach, Mozart, Vivaldi, Beethoven, Chopin - Золотая коллекция самых скачиваемых хитов Классической музыки социальных сетей Вконтакте, Mail.ru, Зайцев.нет, Яндекс-музыки и Google-Play на DVD (2016) MP3 скачать торрен


    • Комментарии (0):

      Информация

      Информация

        Посетители, находящиеся в группе Гости, не могут оставлять комментарии в данной новости.

        ↓ Меню



        ↓ Опрос

        А Вы добавили сайт в закладки?
        Да
        Не


        Top 10 за неделю (Фильмы)