.
Авторизация | Регистрация
Хочешь лучшие торренты? Добавь свой email!
Добавить
» » Марсианин / The Martian (2015) DCPRip | 4K | Трейлер торрент скачать бесплатно




    Марсианин / The Martian (2015) DCPRip | 4K | Трейлер торрент скачать бесплатно

    Опубликовал: Админ | Дата: 16-06-2015, 00:01 | Просмотров: 394



    Создали в: 2015
    Создали в: США/20th Century Fox Film Corporation, International Traders, Scott Free Productions
    Категория жанра: Фантастика, приключения
    Перевод текста: Дублированный
    Главный режиссер: Ридли Скотт
    Продюсеры: Марк Хаффам, Саймон Кинберг, Майкл Шефер
    Актеры: Мэтт Дэймон, Кейт Мара, Джессика Честейн, Кристен Уиг, Маккензи Дэвис, Шон Бин, Себастьян Стэн, Дональд Гловер, Джефф Дэниелс, Майкл Пенья
    Описание фильма:
    Марсианская миссия Арес-3 в процессе работы была вынуждена экстренно покинуть планету из-за надвигающейся песчаной бури. Инженер и биолог Марк Уотни получил повреждение скафандра во время песчаной бури. Сотрудники миссии, посчитав его погибшим, эвакуировались с планеты, оставив Марка одного.
    Очнувшись, Уотни обнаруживает, что связь с Землёй отсутствует, но при этом полностью функционирует жилой модуль. Главный герой начинает искать способ продержаться на имеющихся запасах еды, витаминов, воды и воздуха ещё 4 года до прилёта следующей миссии Арес-4.
    Дата мировой премьеры: 25 ноября 2015
    Дата российской премьеры: 1 октября 2015, Двадцатый Век Фокс СНГ

    Время просмотра: 00: 03: 34
    Качество фильма видео: DCPRip 4K
    Информация о видеокодек: MPEG-4 AVC
    Битрейт видео: ~42, 4 Мбит/сек
    Размер скачиваемого торрента кадра: 3840x2160
    Информация о звукекодек: AC3 5.1
    Битрейт аудио: 448 Кбит/сек
    MediaInfo:
    Общее
    Уникальный идентификатор : 242512683858721185864436875997871292654 (0xB6723E750FD7BCDCA79D71375C2340EE)
    Полное имя : G: ВидеоThe Martian (2015) DCPRip 4K трейлер.mkv
    Формат : Matroska
    Версия формата : Version 4/Version 2
    Размер файла : 1, 09 Гбайт
    Продолжительность : 3 м. 34 с.
    Режим общего битрейта : Постоянный
    Общий поток : 43, 7 Мбит/сек
    Название фильма : l0ngb0y4nnm
    Дата кодирования : UTC 2015-06-14 18: 54: 52
    Программа кодирования : mkvmerge v7.8.0 (;River Man;) 32bit built on Mar 27 2015 16: 18: 02
    Библиотека кодирования : libebml v1.3.1 + libmatroska v1.4.2
    Attachements : poster.jpg
    DURATION : 00: 03: 34.590000000
    NUMBER_OF_FRAMES : 5145
    NUMBER_OF_BYTES : 1159917144
    _STATISTICS_WRITING_APP : mkvmerge v7.8.0 (;River Man;) 32bit built on Mar 27 2015 16: 18: 02
    _STATISTICS_WRITING_DATE_UTC : 2015-06-14 18: 54: 52
    _STATISTICS_TAGS : BPS DURATION NUMBER_OF_FRAMES NUMBER_OF_BYTES
    Видео
    Идентификатор : 1
    Формат : AVC
    Формат/Информация : Advanced Video Codec
    Профиль формата : High@L5.1
    Параметр CABAC формата : Да
    Параметр ReFrames формата : 1 кадр
    Параметр GOP формата : M=1, N=25
    Идентификатор кодека : V_MPEG4/ISO/AVC
    Продолжительность : 3 м. 34 с.
    Вид битрейта : Постоянный
    Битрейт : 42, 4 Мбит/сек
    Номинальный битрейт : 50, 0 Мбит/сек
    Ширина : 3840 пикселей
    Высота : 2160 пикселей
    Соотношение сторон : 16: 9
    Режим частоты кадров : Постоянный
    Частота кадров : 23, 976 кадра/сек
    Цветовое пространство : YUV
    Субдискретизация насыщенности : 4: 2: 0
    Битовая глубина : 8 бит
    Тип развёртки : Прогрессивная
    Бит/(Пиксели*Кадры) : 0.213
    Размер потока : 1, 06 Гбайт (97%)
    Заголовок : 2160p
    Язык : English
    Default : Да
    Forced : Нет
    Аудио
    Идентификатор : 2
    Формат : AC-3
    Формат/Информация : Audio Coding 3
    Расширение режима : CM (complete main)
    Параметр Endianness формата : Big
    Идентификатор кодека : A_AC3
    Продолжительность : 3 м. 34 с.
    Вид битрейта : Постоянный
    Битрейт : 448 Кбит/сек
    Каналы : 6 каналов
    Расположение каналов : Front: L C R, Side: L R, LFE
    Частота : 48, 0 КГц
    Битовая глубина : 16 бит
    Метод сжатия : С потерями
    Размер потока : 11, 5 Мбайт (1%)
    Заголовок : дубляж
    Язык : Russian
    Default : Да
    Forced : Нет

    Скриншоты:

    Залил: Саша 1992

    Онлайн видео Марсианин


    Размер скачиваемого торрента: 1.09 GB (1172233980 Bytes)

    Марсианин/The Martian (2015) DCPRip | 4K | Трейлер
    загрузка...
    Рейтинг →
     (голосов: 1, оценка 3/5, голосовать можно 1 раз )

    Другие торренты по теме:

  • Мой любимый марсианин / My Favorite Martian (1999) WEB-DLRip
  • Мой любимый марсианин / My Favorite Martian (1999) WEB-DL (720p) от HDClub | D
  • Марсианин / The Martian (2015) WEBRip 1080p | Трейлер
  • Энди Уир - Марсианин (2012) (2015) MP3
  • Марсианин (2015) HDRip
  • Марсианин / The Martian (2015) WEBRip | Звук с TS
  • Марсианин / The Martian (2015) WEB-DL 1080р | Чистый звук
  • Марсианин / The Martian (2015) WEB-DLRip от Scarabey | Чистый звук


    • Комментарии (0):

      Информация

      Информация

        Посетители, находящиеся в группе Гости, не могут оставлять комментарии в данной новости.

        ↓ Меню



        ↓ Опрос

        А Вы добавили сайт в закладки?
        Да
        Не


        Top 10 за месяц (Фильмы)