.
Авторизация | Регистрация




Меч + Пролог (2015) HDTVRip-AVC скачать торрент бесплатно

Опубликовал: Админ | Дата: 17-06-2015, 05:03 | Просмотров: 108



Детально о кино
Русское название в мировом прокате: Меч-2
Создали в: 2015
Категория жанра: Детектив, боевик, криминал
Главный режиссер: Алексей Луканев

Актеры
Эдуард Флёров, Роман Курцын, Дарья Повереннова, Александр Фисенко, Нина Гогаева, Макс Туранцев, Виктория Фишер, Владислав Павлов, Максим Щёголев, Тимур Ефременков, Анна Шевченко, Артур Сопельник, Дмитрий Архангельский, Александр Лырчиков, Андрей Курилов, Владислав Шкляев, Анна Глазкова, Никита Абдулов, Александр Курицын, Евгений Смирнов-Иваницкий, Анатолий Завьялов, Михаил Инчин, Дмитрий Пищулин, Ирина Шабашева, Александр Логинов (III)

Сюжет фильма

Максим Калинин (Эдуард Флёров) – капитан запаса, бывший сотрудник Управления по борьбе с организованной преступностью. Когда-то его подставили и выгнали из органов, а настоящего преступника оправдали. Тогда Калинин создал организацию Меч. В криминальных сводках такие группы называют незаконными вооруженными формированиями. Но главная цель Макса и его соратников – борьба с преступниками, ушедшими от правосудия. Они ведут свою собственную охоту на наркоторговцев, педофилов, насильников и других представителей преступного мира. Помимо Макса в группу вошли Костя Орлов (Роман Курцын) – снайпер, бывший сослуживец Калинина, Дима Чижов (Влад Павлов) – инспектор патрульно-постовой службы, опытный юрист Ольга Степненко (Виктория Фишер) и врач команды Лена Журова (Дарья Повереннова), присоединившаяся к мечам после того, как бандиты убили ее мужа, сотрудника СОБРа. У каждого в команде свои обязанности и задачи, но все решения принимаются сообща. Уверенные в том, что в борьбе за справедливость все средства хороши, члены группы вершат самосуд, нередко жертвуя своими бойцами. Одна из операций оборачивается особо серьезным испытанием: Костя погибает, лидер Меча Макс получает тяжелое ранение. Постепенно приходя в себя после ранения, Калинин понимает, что ему придется собирать Меч заново. Но Макс уверен: пока он жив, его дело должно быть продолжено. К группе присоединяются новички, а вскоре мечи узнают, что Костя Орлов выжил. Но где он и как сложится его дальнейшая судьба, это еще предстоит выяснить товарищам. В новом составе группа вновь готова выйти на охоту. Новичкам предстоит доказать свою преданность общему делу, а уже хорошо знакомым героям – не раз пойти на компромисс с собственной совестью ради идеи справедливости. Мечи по-прежнему находятся на грани: с одной стороны, криминальный мир, который объявляет огромные деньги за их поимку, с другой – правоохранительные органы, которые разыскивают участников группы…

Снималось в: Россия
Киностудия: DixiMedia
Время просмотра: 1 х ~ 00: 23: 00, 2 x ~ 00: 44: 00
Перевод текста: Не требуется
Файл
Качество фильма: HDTVRip-AVC
Информация о видео: 1024х576, 25 fps, AVC MPEG-4 (x264), High@L4.1, ~1750 Кbps
Информация о звуке: AC3, 2 ch, 192 kbps
M/I
General
Unique ID: 80233642152279703087792398706780621545 (0x3C5C6FF93D2325850A39258BE17F4AE9)
Complete name : F: СериалыМЕЧ-2.(2015).HDTVRIP_AVC_576pMech-2.E01.(2015).HDTVRIP_AVC.-=DoMiNo=-.mkv
Format: Matroska
Format version: Version 4/Version 2
File size: 628 MiB
Duration: 44mn 21s
Overall bit rate: 1 981 Kbps
Writing application: XviD4PSP 7.0.135
Writing library: Lavf56.25.101
ENCODING_INFO: MPEGTS MKV/H264 X264 CRF 18, 0 Custom/MP2 AC3
Video
ID: 1
Format: AVC
Format/Info: Advanced Video Codec
Format profile: High@L4.1
Format settings, CABAC: Yes
Format settings, ReFrames: 12 frames
Codec ID: V_MPEG4/ISO/AVC
Duration: 44mn 21s
Bit rate: 1 749 Kbps
Width: 1 024 pixels
Height: 576 pixels
Display aspect ratio: 16: 9
Frame rate mode: Constant
Frame rate: 25.000 fps
Color space: YUV
Chroma subsampling: 4: 2: 0
Bit depth: 8 bits
Scan type: Progressive
Bits/(Pixel*Frame): 0.119
Stream size: 555 MiB (88%)
Writing library: x264 core 146 r2538M 121396c
Encoding settings: cabac=1/ref=12/deblock=1: -3: -3/analyse=0x3: 0x133/me=umh/subme=10/psy=1/psy_rd=1, 00: 0, 10/mixed_ref=1/me_range=32/chroma_me=1/trellis=2/8x8dct=1/cqm=0/deadzone=21, 11/fast_pskip=0/chroma_qp_offset=-3/threads=12/lookahead_threads=3/sliced_threads=0/nr=0/decimate=1/interlaced=0/bluray_compat=0/constrained_intra=0/bframes=11/b_pyramid=2/b_adapt=2/b_bias=0/direct=1/weightb=1/open_gop=0/weightp=2/keyint=250/keyint_min=25/scenecut=40/intra_refresh=0/rc=crf/mbtree=0/crf=18, 0/qcomp=0, 60/qpmin=18/qpmax=69/qpstep=4/ip_ratio=1, 40/pb_ratio=1, 30/aq=1: 1, 00
Default: Yes
Forced: No
Color range: Limited
Color primaries: BT.709
Transfer characteristics: BT.709
Matrix coefficients: BT.709
Audio
ID: 2
Format: AC-3
Format/Info: Audio Coding 3
Mode extension: CM (complete main)
Format settings, Endianness: Big
Codec ID: A_AC3
Duration: 44mn 21s
Bit rate mode: Constant
Bit rate: 192 Kbps
Channel(s): 2 channels
Channel positions: Front: L R
Sampling rate: 48.0 KHz
Bit depth: 16 bits
Compression mode: Lossy
Delay relative to video: 27ms
Stream size: 60.9 MiB (10%)
Language: Russian
Default: Yes
Forced : No

Размер скачиваемого торрента: 1.61 GB (1727580124 Bytes)

Меч + Пролог (2015) HDTVRip-AVC
загрузка...
Рейтинг →
 (голосов: 1, оценка 5/5, голосовать можно 1 раз )

Другие торренты по теме:

  • Меч в камне / The Sword in the Stone (1963) HDTVRip-AVC от Youtracker | D, P торрент скачать бесплатно
  • Мастера меча онлайн / Sword Art Online (2012) HDTVRip 720 | Persona99 торрент скачать бесплатно
  • Герои Меча и Магии 3 - Полное Собрание и Хроники Героев / Heroes of Might and Magic 3 - Complete Heroes Chronicles (1999-2001) PC | Repack торрент скачать бесплатно
  • Перумов Ник - Хранитель Мечей. Странствия мага. Том 2 (2013) MP3 торрент скачать бесплатно
  • Меч воина / Cheongpung myeongwol / Sword in the Moon (2003) BDRip от Rulya74 торрент скачать бесплатно
  • Пароль Рыба-меч / Swordfish (2001) BDRip 1080p торрент скачать бесплатно
  • Идентичность меча / Личность Меча / Wo kou de zong ji / The Sword Identity (2011) BDRip | L1 торрент скачать бесплатно
  • Меч отмщения 4 / Kozure kami: Oya no kokoro ko no kokoro (1972) DVDRip торрент скачать бесплатно


    • Комментарии (0):

      Информация

      Информация

        Посетители, находящиеся в группе Гости, не могут оставлять комментарии в данной новости.

        ↓ Меню



        ↓ Опрос

        А Вы добавили сайт в закладки?
        Да
        Не


        Top 10 за неделю (Фильмы)