.
Авторизация | Регистрация




Кибер / Blackhat (2015) DVD9 | Custom скачать торрент бесплатно

Опубликовал: Админ | Дата: 17-06-2015, 05:08 | Просмотров: 152


Вы больше не можете защитить себя

Создали в: 2015
Создали в: США/Universal, Forward Pass, Legendary Pictures
Категория жанра: Боевик, триллер, драма, криминал, детектив
Главный режиссер: Майкл Манн
Продюсеры: Джон Дж. Джашни, Майкл Манн, Томас Тулл
Актеры: Крис Хемсворт, Ван Лихом, Тан Вэй, Виола Дэвис, Холт МакКэллани, Энди Он, Ричи Костер, Кристиан Борл, Джон Ортис, Йорик ван Вагенинген
Описание фильма:
Спокойная, размеренная жизнь современного мирового пространства. Кажется, что ничто не может нарушить равномерный, плавный ход событий, жизнь настолько механизирована, все рассчитано до мельчайшей детали, казалось бы, что может произойти? Какое событие может выбить из колеи столь идеально отлаженную машину? Однако именно разработки в области новейших технологий представляют главную угрозу человечеству. Лучшие ученые умы из США и Китая объединяют силы в борьбе против самой мощной кибернетической атаки.
Перевод текста: Дублированный
Язык субтитров: Английский, русский
Дата мировой премьеры: 15 января 2015
Дата российской премьеры: 29 января 2015, UPI
Дата выхода DVD релиза: 14 мая 2015, Двадцатый Век Фокс СНГ
Время просмотра: 02: 07: 29
Качество фильма видео: DVD9
Информация о видео: MPEG-2, 720x576@1024x576 (PAL 16: 9), ~5437 Кбит/сек
Информация о звуке 1: AC3 5.1, 384 Кбит/сек Английский - оригинал
Информация о звуке 2: AC3 5.1, 448 Кбит/секРусский - дублированный
Информация о звуке 3: AC3 2.0, 192 Кбит/сек Английский - описательный
Доп. материалы: Отсутствуют
DVDInfo:
Title: Blackhat (2015) DVD9 PAL
Size: 5.97 Gb ( 6 262 030, 00 KBytes ) - DVD-9
Enabled regions: 1, 2, 3, 4, 5, 6, 7, 8
VTS_01 :
Play Length: 00: 00: 25
Video: PAL 16: 9 (720x576) VBR, Auto Letterboxed
Audio:
English (Dolby AC3, 6 ch)
VTS_02 :
Play Length: 00: 00: 00
Video: PAL 16: 9 (720x576) VBR, Auto Letterboxed
Audio:
English (Dolby AC3, 2 ch)
English (Dolby AC3, 2 ch)
English (Dolby AC3, 2 ch)
English (Dolby AC3, 2 ch)
English (Dolby AC3, 2 ch)
English (Dolby AC3, 2 ch)
English (Dolby AC3, 2 ch)
English (Dolby AC3, 2 ch)
Subtitles:
English
VTS_03 :
Play Length: 00: 00: 00
Video: PAL 16: 9 (720x576) VBR, Auto Letterboxed
VTS_04 :
Play Length: 00: 00: 00
Video: PAL 16: 9 (720x576) VBR, Auto Letterboxed
VTS_05 :
Play Length: 02: 07: 29
Video: PAL 16: 9 (720x576) VBR, Auto Letterboxed
Audio:
English (Dolby AC3, 6 ch)
Russian (Dolby AC3, 6 ch)
English (Dolby AC3, 2 ch)
Subtitles:
English
Russian
Russian
VTS_06 :
Play Length: 00: 00: 14
Video: PAL 16: 9 (720x576) VBR, Auto Letterboxed
Audio:
English (Dolby AC3, 6 ch)
VTS_07 :
Play Length: 00: 02: 18
Video: PAL 16: 9 (720x576) VBR, Auto Letterboxed
Audio:
English (Dolby AC3, 2 ch)
VTS_08 :
Play Length: 00: 00: 08+00: 00: 08+00: 00: 08+00: 00: 08
Video: PAL 16: 9 (720x576) VBR, Auto Letterboxed
Audio:
English (Dolby AC3, 2 ch)
* Menus Information *
VIDEO_TS Menu
Video:
PAL 16: 9 (720x576) VBR
Auto PanScan
English Language Unit :
Title Menu
VTS_01 Menu
Video:
NTSC 4: 3 (720x480) VBR
Auto PanScan, Auto Letterboxed
English Language Unit :
Root Menu
VTS_02 Menu
Video:
NTSC 4: 3 (720x480) VBR
Auto PanScan, Auto Letterboxed
English Language Unit :
Root Menu
VTS_03 Menu
Video:
NTSC 4: 3 (720x480) VBR
Auto PanScan, Auto Letterboxed
English Language Unit :
Root Menu
VTS_04 Menu
Video:
NTSC 4: 3 (720x480) VBR
Auto PanScan, Auto Letterboxed
English Language Unit :
Root Menu
VTS_05 Menu
Video:
PAL 16: 9 (720x576) VBR
Auto Letterboxed
Audio:
Not specified (Dolby AC3, 2 ch)
English Language Unit :
Root Menu
Subpicture Menu
Audio Menu
Angle menu
Chapter (PTT) Menu
VTS_06 Menu
Video:
NTSC 4: 3 (720x480) VBR
Auto PanScan, Auto Letterboxed
English Language Unit :
Root Menu
VTS_07 Menu
Video:
NTSC 4: 3 (720x480) VBR
Auto PanScan, Auto Letterboxed
English Language Unit :
Root Menu
VTS_08 Menu
Video:
NTSC 4: 3 (720x480) VBR
Auto PanScan, Auto Letterboxed
English Language Unit :
Root Menu
MediaInfo:
Общее
Полное имя : F: ВидеоBlackhat (2015) DVD9 PALVIDEO_TSVTS_05_2.VOB
Формат : MPEG-PS
Размер файла : 1024 Мбайт
Продолжительность : 21 м.
Режим общего битрейта : Переменный
Общий поток : 6592 Кбит/сек
Видео
Идентификатор : 224 (0xE0)
Формат : MPEG Video
Версия формата : Version 2
Профиль формата : Main@Main
Параметр BVOP формата : Да
Параметр матрицы формата : Выборочная
Параметр GOP формата : Variable
Структура изображения : Frame
Продолжительность : 21 м.
Вид битрейта : Переменный
Битрейт : 5437 Кбит/сек
Максимальный битрейт : 9800 Кбит/сек
Ширина : 720 пикселей
Высота : 576 пикселей
Соотношение сторон : 16: 9
Частота кадров : 25, 000 кадров/сек
Стандарт вещания : PAL
Цветовое пространство : YUV
Субдискретизация насыщенности : 4: 2: 0
Битовая глубина : 8 бит
Тип развёртки : Чересстрочная
Порядок развёртки : Верхнее поле первое
Метод сжатия : С потерями
Бит/(Пиксели*Кадры) : 0.524
Временной код первого кадра : 01: 21: 53: 10
Оригинал временного кода : Group of pictures t_head
Размер потока : 844 Мбайт (82%)
Аудио #1
Идентификатор : 189 (0xBD)-128 (0x80)
Формат : AC-3
Формат/Информация : Audio Coding 3
Расширение режима : CM (complete main)
Параметр Endianness формата : Big
Режим смешивания : DVD-Video
Продолжительность : 21 м.
Вид битрейта : Постоянный
Битрейт : 384 Кбит/сек
Каналы : 6 каналов
Расположение каналов : Front: L C R, Side: L R, LFE
Частота : 48, 0 КГц
Битовая глубина : 16 бит
Метод сжатия : С потерями
Задержка видео : -656 мс.
Размер потока : 59, 6 Мбайт (6%)
Аудио #2
Идентификатор : 189 (0xBD)-129 (0x81)
Формат : AC-3
Формат/Информация : Audio Coding 3
Расширение режима : CM (complete main)
Параметр Endianness формата : Big
Режим смешивания : DVD-Video
Продолжительность : 21 м.
Вид битрейта : Постоянный
Битрейт : 448 Кбит/сек
Каналы : 6 каналов
Расположение каналов : Front: L C R, Side: L R, LFE
Частота : 48, 0 КГц
Битовая глубина : 16 бит
Метод сжатия : С потерями
Задержка видео : -688 мс.
Размер потока : 69, 6 Мбайт (7%)
Аудио #3
Идентификатор : 189 (0xBD)-130 (0x82)
Формат : AC-3
Формат/Информация : Audio Coding 3
Профиль формата : Dolby Digital
Расширение режима : CM (complete main)
Параметр Endianness формата : Big
Режим смешивания : DVD-Video
Продолжительность : 21 м.
Вид битрейта : Постоянный
Битрейт : 192 Кбит/сек
Каналы : 2 канала
Расположение каналов : Front: L R
Частота : 48, 0 КГц
Битовая глубина : 16 бит
Метод сжатия : С потерями
Задержка видео : -624 мс.
Размер потока : 29, 8 Мбайт (3%)
Текст #1
Идентификатор : 189 (0xBD)-32 (0x20)
Формат : RLE
Формат/Информация : Run-length encoding
Режим смешивания : DVD-Video
Задержка видео : 800 мс.
Текст #2
Идентификатор : 189 (0xBD)-33 (0x21)
Формат : RLE
Формат/Информация : Run-length encoding
Режим смешивания : DVD-Video
Задержка видео : 640 мс.
Меню
Доп. информация:
Исходником послужил лицензионный DVD9 из-за рубежа. Испанскую звуковую дорожку заменил на русскую вместе с субтитрами. Предупреждающие надписи скрыл.
Русская звуковая дорожка включается по умолчанию.
Использовались программы: MKVExtractGUI2, TranzcodeGUI, SONY Vegas Pro, DVD ReMake Pro, PgcDemux, Adobe PhotoShop, MuxMan, Subtitle Workshop, MaestroSBT, DVDSubEdit.
Скриншоты меню:

Скриншоты:

Залил: Саша 1992
Размер скачиваемого торрента: 5.97 GB (6412318720 Bytes)

Кибер/Blackhat (2015) DVD9 | Custom
загрузка...
Рейтинг →
 (голосов: 1, оценка 5/5, голосовать можно 1 раз )

Другие торренты по теме:

  • Кибер-команда Акихабары - Фильм / Cyberteam in Akihabara - 2011 Summer Vacations (1999) DVDRip AVC | Persona99 скачать через торрент бесплатно


    • Комментарии (0):

      Информация

      Информация

        Посетители, находящиеся в группе Гости, не могут оставлять комментарии в данной новости.

        ↓ Меню



        ↓ Опрос

        А Вы добавили сайт в закладки?
        Да
        Не


        Top 10 за неделю (Фильмы)