.
Авторизация | Регистрация
Хочешь лучшие торренты? Добавь свой email!
Добавить
» » Континуум / Project Almanac (2014) BDRip 1080p | iTunes торрент скачать бесплатно




    Континуум / Project Almanac (2014) BDRip 1080p | iTunes торрент скачать бесплатно

    Опубликовал: Админ | Дата: 17-06-2015, 05:08 | Просмотров: 126




    Детально о кино
    Русское название: Континуум
    Русское название в мировом прокате: Project Almanac
    Создали в: 2014
    Категория жанра: фантастика, триллер
    Главный режиссер: Дин Израэлайт

    Актеры
    Джонни Уэстон, София Блэк-Д;Элиа, Сэм Лернер, Аллен Евангелиста, Эми Ландекер, Гари Викс, Максен Линтц, Гэри Граббс, Мишель ДеФрайтс, Карри Стоун


    Сюжет фильма
    Однажды после просмотра старой пленки со дня рождения уже взрослый именинник заметил себя настоящего в отражении на видео. Съедаемые любопытством, друзья нашли чертежи таинственного устройства, похожего на машину времени. Они решили доделать ее и испробовать, чтобы вернуться в прошлое и исправить некоторые ошибки. Но что будет, если группа отвязных тинейджеров случайно завладеет машиной времени? Однозначно, будет весело! Пока кто-то не нарушит правила, и веселая шутка не обернется кошмаром. Надо торопиться восстановить континуум, пока мир окончательно не разрушен!



    Снималось в: США/Insurge Pictures, MTV Films, Paramount Pictures
    Время просмотра: 01: 46: 12
    Перевод текста: Профессиональный (полное дублирование)- iTunes

    Файл
    Качество фильма: BDRip 1080p
    Тип видео: MKV
    Информация о видео: MPEG4/AVC, 17.1 Мбит/сек, 1920х800 (2.40: 1), 23.976 кадра/сек
    Информация о звуке 1: AC3, 6 каналов, 384 Кбит/сек | Русский
    Информация о звуке 2: AC3, 6 каналов, 640 Кбит/сек | Английский
    Информация о звуке 3: AC3, 6 каналов, 640 Кбит/сек | Английский - комментарии
    Субтитры: Русские (Forced, Full), английские (Full, SDH)
    Навигация по главам: Есть

    MediaInfo:
    Общее
    Уникальный идентификатор : 233516779481707849481826481690452062269 (0xAFADB220BD6162228EC8F9B91346703D)
    Полное имя : Project Almanac. (2014) BDRip 1080p.mkv
    Формат : Matroska
    Версия формата : Version 2
    Размер файла : 14, 2 Гбайт
    Продолжительность : 1 ч. 46 м.
    Общий поток : 19, 1 Мбит/сек
    Название фильма : Project Almanac. 2014
    Дата кодирования : UTC 2015-06-16 13: 28: 20
    Программа кодирования : mkvmerge v5.8.0 (;No Sleep/Pillow;) built on Sep 2 2012 15: 37: 04
    Библиотека кодирования : libebml v1.2.3 + libmatroska v1.3.0

    Видео
    Идентификатор : 1
    Формат : AVC
    Формат/Информация : Advanced Video Codec
    Профиль формата : High@L4.1
    Параметр CABAC формата : Да
    Параметр ReFrames формата : 5 кадров
    Идентификатор кодека : V_MPEG4/ISO/AVC
    Продолжительность : 1 ч. 46 м.
    Битрейт : 17, 1 Мбит/сек
    Ширина : 1920 пикселей
    Высота : 800 пикселей
    Соотношение сторон : 2, 40: 1
    Режим частоты кадров : Постоянный
    Частота кадров : 23, 976 кадра/сек
    Цветовое пространство : YUV
    Субдискретизация насыщенности : 4: 2: 0
    Битовая глубина : 8 бит
    Тип развёртки : Прогрессивная
    Бит/(Пиксели*Кадры) : 0.463
    Размер потока : 12, 7 Гбайт (89%)
    Заголовок : DesTroY
    Библиотека кодирования : x264 core 133 r2334 a3ac64b
    Настройки программы : cabac=1/ref=5/deblock=1: -3: -3/analyse=0x3: 0x113/me=umh/subme=10/psy=1/psy_rd=1.10: 0.00/mixed_ref=1/me_range=24/chroma_me=1/trellis=2/8x8dct=1/cqm=0/deadzone=21, 11/fast_pskip=0/chroma_qp_offset=-2/threads=12/lookahead_threads=2/sliced_threads=0/nr=0/decimate=1/interlaced=0/bluray_compat=0/constrained_intra=0/bframes=8/b_pyramid=2/b_adapt=2/b_bias=0/direct=1/weightb=1/open_gop=0/weightp=2/keyint=250/keyint_min=23/scenecut=40/intra_refresh=0/rc_lookahead=40/rc=crf/mbtree=0/crf=16.5/qcomp=0.60/qpmin=0/qpmax=69/qpstep=4/vbv_maxrate=62500/vbv_bufsize=78125/crf_max=0.0/nal_hrd=none/ip_ratio=1.30/pb_ratio=1.20/aq=1: 0.60
    Язык : English
    Default : Да
    Forced : Нет

    Аудио #1
    Идентификатор : 2
    Формат : AC-3
    Формат/Информация : Audio Coding 3
    Расширение режима : CM (complete main)
    Параметр Endianness формата : Big
    Идентификатор кодека : A_AC3
    Продолжительность : 1 ч. 46 м.
    Вид битрейта : Постоянный
    Битрейт : 384 Кбит/сек
    Каналы : 6 каналов
    Расположение каналов : Front: L C R, Side: L R, LFE
    Частота : 48, 0 КГц
    Битовая глубина : 16 бит
    Метод сжатия : С потерями
    Размер потока : 292 Мбайт (2%)
    Заголовок : AC3 | 5.1 ch | 640 Kbps | DUB | iTunes Russia
    Язык : Russian
    Default : Да
    Forced : Нет

    Аудио #2
    Идентификатор : 3
    Формат : AC-3
    Формат/Информация : Audio Coding 3
    Расширение режима : CM (complete main)
    Параметр Endianness формата : Big
    Идентификатор кодека : A_AC3
    Продолжительность : 1 ч. 46 м.
    Вид битрейта : Постоянный
    Битрейт : 640 Кбит/сек
    Каналы : 6 каналов
    Расположение каналов : Front: L C R, Side: L R, LFE
    Частота : 48, 0 КГц
    Битовая глубина : 16 бит
    Метод сжатия : С потерями
    Размер потока : 486 Мбайт (3%)
    Заголовок : AC3 | 5.1 ch | 640 Kbps | Original
    Язык : English
    Default : Нет
    Forced : Нет

    Аудио #3
    Идентификатор : 4
    Формат : AC-3
    Формат/Информация : Audio Coding 3
    Расширение режима : CM (complete main)
    Параметр Endianness формата : Big
    Идентификатор кодека : A_AC3
    Продолжительность : 1 ч. 46 м.
    Вид битрейта : Постоянный
    Битрейт : 640 Кбит/сек
    Каналы : 6 каналов
    Расположение каналов : Front: L C R, Side: L R, LFE
    Частота : 48, 0 КГц
    Битовая глубина : 16 бит
    Метод сжатия : С потерями
    Размер потока : 486 Мбайт (3%)
    Заголовок : AC3 | 5.1 ch | 640 Kbps | Deive
    Язык : English
    Default : Нет
    Forced : Нет

    Текст #1
    Идентификатор : 5
    Формат : UTF-8
    Идентификатор кодека : S_TEXT/UTF8
    Идентификатор кодека/Информация : UTF-8 Plain Text
    Заголовок : Forced
    Язык : Russian
    Default : Да
    Forced : Да

    Текст #2
    Идентификатор : 6
    Формат : UTF-8
    Идентификатор кодека : S_TEXT/UTF8
    Идентификатор кодека/Информация : UTF-8 Plain Text
    Заголовок : Full
    Язык : Russian
    Default : Нет
    Forced : Нет

    Текст #3
    Идентификатор : 7
    Формат : UTF-8
    Идентификатор кодека : S_TEXT/UTF8
    Идентификатор кодека/Информация : UTF-8 Plain Text
    Заголовок : Full
    Язык : English
    Default : Нет
    Forced : Нет

    Текст #4
    Идентификатор : 8
    Формат : UTF-8
    Идентификатор кодека : S_TEXT/UTF8
    Идентификатор кодека/Информация : UTF-8 Plain Text
    Заголовок : SDH
    Язык : English
    Default : Нет
    Forced : Нет

    Меню
    00: 00: 00.000 : en: 00: 00: 00.000
    00: 07: 56.309 : en: 00: 07: 56.309
    00: 15: 20.211 : en: 00: 15: 20.211
    00: 23: 49.803 : en: 00: 23: 49.803
    00: 31: 15.665 : en: 00: 31: 15.665
    00: 39: 19.274 : en: 00: 39: 19.274
    00: 46: 58.274 : en: 00: 46: 58.274
    00: 54: 11.957 : en: 00: 54: 11.957
    01: 00: 55.485 : en: 01: 00: 55.485
    01: 09: 43.304 : en: 01: 09: 43.304
    01: 16: 24.371 : en: 01: 16: 24.371
    01: 23: 07.733 : en: 01: 23: 07.733
    01: 32: 20.618 : en: 01: 32: 20.618
    01: 41: 19.323 : en: 01: 41: 19.323



    Релиз подготовил:

    Онлайн видео Континуум


    Размер скачиваемого торрента: 14.18 GB (15226557665 Bytes)

    Континуум/Project Almanac (2014) BDRip 1080p | iTunes
    загрузка...
    Рейтинг →
     (голосов: 1, оценка 4/5, голосовать можно 1 раз )

    Другие торренты по теме:

  • Континуум / Continuum (2012) BDRip | LostFilm
  • Континуум: Вебсериал / Continuum Web Series (2012) WEBRip
  • Континуум / Continuum (2013) WEB-DLRip | NewStudio
  • Континуум / Continuum (2013) WEB-DL 720p | LostFilm
  • Звездные врата: Континуум / Stargate: Continuum (2008) HDRip от Generalfilm | КПК | ТВ3
  • Континуум / Continuum (2012-2013) WEB-DLRip | LostFilm скачать через торрент бесплатно
  • Континуум / Continuum (2014) WEB-DL 720p | NewStudio скачать через торрент бесплатно
  • Континуум / Continuum (2014) WEB-DL 1080p | NewStudio скачать через торрент бесплатно


    • Комментарии (0):

      Информация

      Информация

        Посетители, находящиеся в группе Гости, не могут оставлять комментарии в данной новости.

        ↓ Меню



        ↓ Опрос

        А Вы добавили сайт в закладки?
        Да
        Не


        Top 10 за месяц (Фильмы)