.
Авторизация | Регистрация
» » Континуум / Project Almanac (2014) BDRemux 1080p | iTunes скачать торрент бесплатно




    Континуум / Project Almanac (2014) BDRemux 1080p | iTunes скачать торрент бесплатно

    Опубликовал: Админ | Дата: 17-06-2015, 05:09 | Просмотров: 115




    Детально о кино
    Русское название: Континуум
    Русское название в мировом прокате: Project Almanac
    Создали в: 2014
    Категория жанра: фантастика, триллер
    Главный режиссер: Дин Израэлайт

    Актеры
    Джонни Уэстон, София Блэк-Д;Элиа, Сэм Лернер, Аллен Евангелиста, Эми Ландекер, Гари Викс, Максен Линтц, Гэри Граббс, Мишель ДеФрайтс, Карри Стоун


    Сюжет фильма
    Однажды после просмотра старой пленки со дня рождения уже взрослый именинник заметил себя настоящего в отражении на видео. Съедаемые любопытством, друзья нашли чертежи таинственного устройства, похожего на машину времени. Они решили доделать ее и испробовать, чтобы вернуться в прошлое и исправить некоторые ошибки. Но что будет, если группа отвязных тинейджеров случайно завладеет машиной времени? Однозначно, будет весело! Пока кто-то не нарушит правила, и веселая шутка не обернется кошмаром. Надо торопиться восстановить континуум, пока мир окончательно не разрушен!



    Снималось в: США/Insurge Pictures, MTV Films, Paramount Pictures
    Время просмотра: 01: 46: 12
    Перевод текста: Профессиональный (полное дублирование)- iTunes

    Файл
    Качество фильма: BDRemux 1080p
    Тип видео: MKV
    Информация о видео: MPEG4/AVC, 36.0 Мбит/сек, 1920х1080 (16: 9), 23.976 кадра/сек
    Информация о звуке 1: AC3, 6 каналов, 384 Кбит/сек | Русский
    Информация о звуке 2: AC3, 6 каналов, 640 Кбит/сек | Английский
    Информация о звуке 3: DTS-HD MA, 6 каналов, 3530 Кбит/сек | Английский
    Информация о звуке 4: AC3, 6 каналов, 640 Кбит/сек | Английский - комментарии
    Субтитры: Русские (Forced, Full), английские (Full, SDH)
    Навигация по главам: Есть

    MediaInfo:
    Общее
    Уникальный идентификатор : 199571590054561759373172518443424565809 (0x96241712FD4A1F36B2767A3A6B9A4A31)
    Полное имя : Project Almanac. (2014) BDRemux 1080p.mkv
    Формат : Matroska
    Версия формата : Version 2
    Размер файла : 28, 7 Гбайт
    Продолжительность : 1 ч. 46 м.
    Режим общего битрейта : Переменный
    Общий поток : 38, 6 Мбит/сек
    Название фильма : Project Almanac. 2014
    Дата кодирования : UTC 2015-06-16 12: 07: 52
    Программа кодирования : mkvmerge v5.8.0 (;No Sleep/Pillow;) built on Sep 2 2012 15: 37: 04
    Библиотека кодирования : libebml v1.2.3 + libmatroska v1.3.0

    Видео
    Идентификатор : 1
    Формат : AVC
    Формат/Информация : Advanced Video Codec
    Профиль формата : High@L4.1
    Параметр CABAC формата : Да
    Параметр ReFrames формата : 4 кадра
    Идентификатор кодека : V_MPEG4/ISO/AVC
    Продолжительность : 1 ч. 46 м.
    Вид битрейта : Переменный
    Максимальный битрейт : 36, 0 Мбит/сек
    Ширина : 1920 пикселей
    Высота : 1080 пикселей
    Соотношение сторон : 16: 9
    Режим частоты кадров : Постоянный
    Частота кадров : 23, 976 кадра/сек
    Цветовое пространство : YUV
    Субдискретизация насыщенности : 4: 2: 0
    Битовая глубина : 8 бит
    Тип развёртки : Прогрессивная
    Заголовок : BuR
    Язык : English
    Default : Да
    Forced : Нет

    Аудио #1
    Идентификатор : 2
    Формат : AC-3
    Формат/Информация : Audio Coding 3
    Расширение режима : CM (complete main)
    Параметр Endianness формата : Big
    Идентификатор кодека : A_AC3
    Продолжительность : 1 ч. 46 м.
    Вид битрейта : Постоянный
    Битрейт : 384 Кбит/сек
    Каналы : 6 каналов
    Расположение каналов : Front: L C R, Side: L R, LFE
    Частота : 48, 0 КГц
    Битовая глубина : 16 бит
    Метод сжатия : С потерями
    Размер потока : 292 Мбайт (1%)
    Заголовок : AC3 | 5.1 ch | 640 Kbps | DUB | iTunes Russia
    Язык : Russian
    Default : Да
    Forced : Нет

    Аудио #2
    Идентификатор : 3
    Формат : AC-3
    Формат/Информация : Audio Coding 3
    Расширение режима : CM (complete main)
    Параметр Endianness формата : Big
    Идентификатор кодека : A_AC3
    Продолжительность : 1 ч. 46 м.
    Вид битрейта : Постоянный
    Битрейт : 640 Кбит/сек
    Каналы : 6 каналов
    Расположение каналов : Front: L C R, Side: L R, LFE
    Частота : 48, 0 КГц
    Битовая глубина : 16 бит
    Метод сжатия : С потерями
    Размер потока : 486 Мбайт (2%)
    Заголовок : AC3 | 5.1 ch | 640 Kbps | Original
    Язык : English
    Default : Нет
    Forced : Нет

    Аудио #3
    Идентификатор : 4
    Формат : DTS
    Формат/Информация : Digital Theater Systems
    Профиль формата : MA/Core
    Режим : 16
    Параметр Endianness формата : Big
    Идентификатор кодека : A_DTS
    Продолжительность : 1 ч. 46 м.
    Вид битрейта : Переменный
    Битрейт : 3530/1509 Кбит/сек
    Каналы : 6 каналов
    Расположение каналов : Front: L C R, Side: L R, LFE
    Частота : 48, 0 КГц
    Битовая глубина : 24 бит
    Метод сжатия : Без потерь/Lossy
    Задержка видео : 9 мс.
    Заголовок : DTS-HD MA | 5.1 ch | 3530 Kbps | Original
    Язык : English
    Default : Нет
    Forced : Нет

    Аудио #4
    Идентификатор : 5
    Формат : AC-3
    Формат/Информация : Audio Coding 3
    Расширение режима : CM (complete main)
    Параметр Endianness формата : Big
    Идентификатор кодека : A_AC3
    Продолжительность : 1 ч. 46 м.
    Вид битрейта : Постоянный
    Битрейт : 640 Кбит/сек
    Каналы : 6 каналов
    Расположение каналов : Front: L C R, Side: L R, LFE
    Частота : 48, 0 КГц
    Битовая глубина : 16 бит
    Метод сжатия : С потерями
    Размер потока : 486 Мбайт (2%)
    Заголовок : AC3 | 5.1 ch | 640 Kbps | Deive
    Язык : English
    Default : Нет
    Forced : Нет

    Текст #1
    Идентификатор : 6
    Формат : UTF-8
    Идентификатор кодека : S_TEXT/UTF8
    Идентификатор кодека/Информация : UTF-8 Plain Text
    Заголовок : Forced
    Язык : Russian
    Default : Да
    Forced : Да

    Текст #2
    Идентификатор : 7
    Формат : UTF-8
    Идентификатор кодека : S_TEXT/UTF8
    Идентификатор кодека/Информация : UTF-8 Plain Text
    Заголовок : Full
    Язык : Russian
    Default : Нет
    Forced : Нет

    Текст #3
    Идентификатор : 8
    Формат : UTF-8
    Идентификатор кодека : S_TEXT/UTF8
    Идентификатор кодека/Информация : UTF-8 Plain Text
    Заголовок : Full
    Язык : English
    Default : Нет
    Forced : Нет

    Текст #4
    Идентификатор : 9
    Формат : UTF-8
    Идентификатор кодека : S_TEXT/UTF8
    Идентификатор кодека/Информация : UTF-8 Plain Text
    Заголовок : SDH
    Язык : English
    Default : Нет
    Forced : Нет

    Меню
    00: 00: 00.000 : en: 00: 00: 00.000
    00: 07: 56.309 : en: 00: 07: 56.309
    00: 15: 20.211 : en: 00: 15: 20.211
    00: 23: 49.803 : en: 00: 23: 49.803
    00: 31: 15.665 : en: 00: 31: 15.665
    00: 39: 19.274 : en: 00: 39: 19.274
    00: 46: 58.274 : en: 00: 46: 58.274
    00: 54: 11.957 : en: 00: 54: 11.957
    01: 00: 55.485 : en: 01: 00: 55.485
    01: 09: 43.304 : en: 01: 09: 43.304
    01: 16: 24.371 : en: 01: 16: 24.371
    01: 23: 07.733 : en: 01: 23: 07.733
    01: 32: 20.618 : en: 01: 32: 20.618
    01: 41: 19.323 : en: 01: 41: 19.323



    Релиз подготовил:

    Онлайн видео Континуум


    Размер скачиваемого торрента: 28.67 GB (30779937369 Bytes)

    Континуум/Project Almanac (2014) BDRemux 1080p | iTunes
    загрузка...
    Рейтинг →
     (голосов: 1, оценка 4/5, голосовать можно 1 раз )

    Другие торренты по теме:



      Комментарии (0):

      Информация

      Информация

        Посетители, находящиеся в группе Гости, не могут оставлять комментарии в данной новости.

        ↓ Меню



        ↓ Опрос

        А Вы добавили сайт в закладки?
        Да
        Не


        Top 10 за неделю (Фильмы)