.
Авторизация | Регистрация
» » Тотальная слежка / La totale! (1991) DVD9 | P скачать торрент бесплатно




    Тотальная слежка / La totale! (1991) DVD9 | P скачать торрент бесплатно

    Опубликовал: Админ | Дата: 17-06-2015, 05:10 | Просмотров: 136



    Детально о кино
    Русское название: Тотальная слежка
    Русское название в мировом прокате: La totale!
    Создали в: 1991
    Категория жанра: комедия, приключения
    Главный режиссер: Клод Зиди

    Актеры
    Тьерри Лермитт, Миу-Миу, Эдди Митчелл, Мишель Бужена, Жан Бенгиги, Анник Алан, Клаудине Вильде, Франсуа Хаджи-Лазаро, Ян Эпстейн, Сагамор Стевенен

    Сюжет фильма

    Жена главного героя уверена, что ее муж работает скромным государственным служащим министерства связи, а он оказывается секретным агентом, выполняющим рискованнейшие задания правительства. Случайно узнав, что жена, чтобы развеять монотонность супружеской жизни, встречается с неким Симоном, выдающим себя за эдакого Джеймса Бонда, муж использует свои служебные возможности, чтобы проучить Симона и вернуть жену. Но он никак не ожидал, что в этот момент за ними начнут охоту настоящие террористы.

    Снималось в: Франция
    Киностудия: Film Par Film, Films 7, M.D.G. Productions, Paravision International S.A., TF1 Films Production
    Время просмотра: 100 мин./01: 40
    Перевод текста: профессиональный (многоголосый, закадровый)
    Файл
    Кодек для видео: MPEG2
    Качество фильма: DVD9 Настроение Видео
    Информация о видео: PAL 16: 9 (720x576@1024x576) VBR 6121 Kbps, 25.000 fps
    Информация о звуке: Dolby AC3, 6 ch, 48.0 KHz, 448 Kbps (русский, французский)
    Субтитры: отсутствуют
    MediaInfo
    Общее
    Полное имя : D: Total SlezhkaVIDEO_TSVTS_03_1.VOB
    Формат : MPEG-PS
    Размер файла : 1024 Мбайт
    Продолжительность : 19 м.
    Режим общего битрейта : Переменный
    Общий поток : 7159 Кбит/сек
    Видео
    Идентификатор : 224 (0xE0)
    Формат : MPEG Video
    Версия формата : Version 2
    Профиль формата : Main@Main
    Параметр BVOP формата : Да
    Параметр матрицы формата : По умолчанию
    Параметр GOP формата : M=3, N=13
    Структура изображения : Frame
    Продолжительность : 19 м.
    Вид битрейта : Переменный
    Битрейт : 6121 Кбит/сек
    Максимальный битрейт : 8300 Кбит/сек
    Ширина : 720 пикселей
    Высота : 576 пикселей
    Соотношение сторон : 2, 40: 1
    Частота кадров : 25, 000 кадров/сек
    Стандарт вещания : PAL
    Цветовое пространство : YUV
    Субдискретизация насыщенности : 4: 2: 0
    Битовая глубина : 8 бит
    Тип развёртки : Чересстрочная
    Порядок развёртки : Верхнее поле первое
    Метод сжатия : С потерями
    Бит/(Пиксели*Кадры) : 0.590
    Временной код первого кадра : 00: 00: 00: 00
    Оригинал временного кода : Group of pictures t_head
    GOP, открыто/закрыто : Открыто
    Размер потока : 875 Мбайт (85%)
    Основные цвета : BT.601 PAL
    Характеристики трансфера : BT.470 System B, BT.470 System G
    Коэффициенты матрицы : BT.601
    Аудио #1
    Идентификатор : 189 (0xBD)-128 (0x80)
    Формат : AC-3
    Формат/Информация : Audio Coding 3
    Расширение режима : CM (complete main)
    Параметр Endianness формата : Big
    Режим смешивания : DVD-Video
    Продолжительность : 19 м.
    Вид битрейта : Постоянный
    Битрейт : 448 Кбит/сек
    Каналы : 6 каналов
    Расположение каналов : Front: L C R, Side: L R, LFE
    Частота : 48, 0 КГц
    Метод сжатия : С потерями
    Размер потока : 64, 1 Мбайт (6%)
    Аудио #2
    Идентификатор : 189 (0xBD)-129 (0x81)
    Формат : AC-3
    Формат/Информация : Audio Coding 3
    Расширение режима : CM (complete main)
    Параметр Endianness формата : Big
    Режим смешивания : DVD-Video
    Продолжительность : 19 м.
    Вид битрейта : Постоянный
    Битрейт : 448 Кбит/сек
    Каналы : 6 каналов
    Расположение каналов : Front: L C R, Side: L R, LFE
    Частота : 48, 0 КГц
    Метод сжатия : С потерями
    Размер потока : 64, 1 Мбайт (6%)
    Меню
    Скриншоты


    Залил: carisha

    Онлайн видео Тотальная слежка


    Размер скачиваемого торрента: 6.07 GB (6514707292 Bytes)

    Тотальная слежка/La totale! (1991) DVD9 | P
    загрузка...
    Рейтинг →
     (голосов: 1, оценка 5/5, голосовать можно 1 раз )

    Другие торренты по теме:



      Комментарии (0):

      Информация

      Информация

        Посетители, находящиеся в группе Гости, не могут оставлять комментарии в данной новости.

        ↓ Меню



        ↓ Опрос

        А Вы добавили сайт в закладки?
        Да
        Не


        Top 10 за неделю (Фильмы)