.
Авторизация | Регистрация
Хочешь лучшие торренты? Добавь свой email!
Добавить
» » Красавица и чудовище / La belle et la bte (2014) BDRip 720p от KinoGadget | iPad торрент скачать бесплатно




    Красавица и чудовище / La belle et la bte (2014) BDRip 720p от KinoGadget | iPad торрент скачать бесплатно

    Опубликовал: Админ | Дата: 17-06-2015, 05:10 | Просмотров: 64



    Создали в: 2014
    Снималось в: Франция, Германия
    Категория жанра: фэнтези, мелодрама
    Время просмотра: 01: 53: 04
    Перевод текста: Дублированный
    Главный режиссер: Кристоф Ганс

    Актеры
    Леа Сейду, Венсан Кассель, Андре Дюссолье, Эдуардо Норьега, Мириам Шарленс, Одри Лами, Сара Жиродо, Жонатан Демурже, Николя Гоб, Лука Мельява
    Описание: Дочь купца, смелая и отважная Белль, отправляется в замок чудовища, чтобы спасти жизнь своего отца. Очутившись в замке, Белль попадает в потусторонний мир волшебства, фантастических приключений и загадочной меланхолии.
    Оказывается, что наводившее ужас на всю округу чудовище очень несчастно, а в его груди бьется доброе сердце. Белль все больше проникается симпатией к своему ужасному господину.
    Благодаря пылкому сердцу и храбрости, она преодолевает все опасности, чтобы снять зловещие чары с чудовища. Но это произойдет, только если его сможет полюбить прекрасная девушка.

    Информация о видео кодек: MPEG-4 AVC
    Качество фильма: BDRip 720p
    Параметры Видео: 1280x536, 24.000 fps; ~2 461 kbps avg
    Параметры Звука: 44.1 KHz, AAC, ~149.00 kbps avg, 2ch
    Тип видео: mp4
    Автор рипа:
    Релиз-группа:

    Meta Tags


    MI
    General
    Complete name : E: Krasavica_i_chudovishhe.2014.D.BDRip.720p_KinoGadget.mp4
    Format : MPEG-4
    Format profile : Base Media
    Codec ID : isom
    File size : 2.07 GiB
    Duration : 1h 53mn
    Overall bit rate mode : Variable
    Overall bit rate : 2 619 Kbps
    Movie name : Красавица и чудовище
    Performer : Кристоф Ганс
    Genre : Romance
    ContentType : Short Film
    Recorded date : 2014
    Encoded date : UTC 2015-06-16 17: 17: 23
    Tagged date : UTC 2015-06-16 17: 50: 43
    Cover : Yes
    LongDeion : Дочь купца, смелая и отважная Белль, отправляется в замок чудовища, чтобы спасти жизнь своего отца. Очутившись в замке, Белль попадает в потусторонний мир волшебства, фантастических приключений и загадочной меланхолии.
    HDVideo : Yes
    Video
    ID : 1
    Format : AVC
    Format/Info : Advanced Video Codec
    Format profile : High@L4.1
    Format settings, CABAC : Yes
    Format settings, ReFrames : 11 frames
    Codec ID : avc1
    Codec ID/Info : Advanced Video Coding
    Duration : 1h 53mn
    Bit rate : 2 461 Kbps
    Maximum bit rate : 12.7 Mbps
    Width : 1 280 pixels
    Height : 536 pixels
    Display aspect ratio : 2.40: 1
    Frame rate mode : Constant
    Frame rate : 24.000 fps
    Color space : YUV
    Chroma subsampling : 4: 2: 0
    Bit depth : 8 bits
    Scan type : Progressive
    Bits/(Pixel*Frame) : 0.149
    Stream size : 1.94 GiB (94%)
    Writing library : x264 core 146 r2538 121396c
    Encoding settings : cabac=1/ref=11/deblock=1: -1: -1/analyse=0x3: 0x133/me=umh/subme=9/psy=1/psy_rd=1.00: 0.00/mixed_ref=1/me_range=24/chroma_me=1/trellis=2/8x8dct=1/cqm=0/deadzone=21, 11/fast_pskip=1/chroma_qp_offset=-2/threads=3/lookahead_threads=1/sliced_threads=0/nr=0/decimate=1/interlaced=0/bluray_compat=0/constrained_intra=0/bframes=4/b_pyramid=2/b_adapt=2/b_bias=0/direct=3/weightb=1/open_gop=0/weightp=2/keyint=240/keyint_min=24/scenecut=40/intra_refresh=0/rc_lookahead=60/rc=crf/mbtree=1/crf=21.0/qcomp=0.60/qpmin=0/qpmax=69/qpstep=4/ip_ratio=1.40/aq=1: 1.70
    Encoded date : UTC 2015-06-15 03: 08: 57
    Tagged date : UTC 2015-06-16 17: 18: 24
    Audio
    ID : 2
    Format : AAC
    Format/Info : Advanced Audio Codec
    Format profile : LC
    Codec ID : 40
    Duration : 1h 53mn
    Bit rate mode : Variable
    Bit rate : 149 Kbps
    Maximum bit rate : 221 Kbps
    Channel count : 2 channels
    Channel positions : Front: L R
    Sampling rate : 44.1 KHz
    Compression mode : Lossy
    Stream size : 121 MiB (6%)
    Language : Russian
    Encoded date : UTC 2015-06-16 17: 18: 07
    Tagged date : UTC 2015-06-16 17: 18: 24

    Скриншоты


    Залил: KinoGadget

    Онлайн видео Красавица и чудовище


    Размер скачиваемого торрента: 2.07 GB (2221328120 Bytes)

    Красавица и чудовище/La belle et la bte (2014) BDRip 720p от KinoGadget | iPad
    загрузка...
    Рейтинг →
     (голосов: 1, оценка 3/5, голосовать можно 1 раз )

    Другие торренты по теме:

  • Красавица и чудовище / Beauty and the Beast (2012) WEB-DLRip 720p | LostFilm
  • Красавица и водородный человек / Bijo to Ekitainingen / The H-man (1958) DVDRip
  • Красавица и чудовище / Beauty and the Beast (2012) WEB-DLRip | LostFilm
  • Красавица и чудовище / Beauty and the Beast (2013) WEB-DLRip | LostFilm скачать через торрент бесплатно
  • Красавица и чудовище / Beauty and the Beast (2013) HDTVRip | Kerob
  • Красавица и чудовище / Beauty and the Beast (2013) HDTV 720p | Kerob
  • Красавица и чудовище / Beauty and the Beast (2013) WEB-DLRip 720p | LostFilm скачать через торрент бесплатно
  • Красавица и чудовище: Чудесное Рождество / Beauty and the Beast: The Enchanted Christmas (1997) BDRip-HEVC 720p от Freeisland скачать через торрент бесплатно


    • Комментарии (0):

      Информация

      Информация

        Посетители, находящиеся в группе Гости, не могут оставлять комментарии в данной новости.

        ↓ Меню



        ↓ Опрос

        А Вы добавили сайт в закладки?
        Да
        Не


        Top 10 за месяц (Фильмы)