.
Авторизация | Регистрация
Хочешь лучшие торренты? Добавь свой email!
Добавить
» » Народ против Ларри Флинта / The People vs. Larry Flynt (1996) BDRip 720p от HQ-ViDEO | D, P торрент скачать бесплатно




    Народ против Ларри Флинта / The People vs. Larry Flynt (1996) BDRip 720p от HQ-ViDEO | D, P торрент скачать бесплатно

    Опубликовал: Админ | Дата: 18-06-2015, 05:06 | Просмотров: 111


    Народ против Ларри Флинта/The People vs. Larry Flynt (1996) BDRip 720p
    Релиз от HQ-ViDEO

    Детально о кино
    Русское название: Народ против Ларри Флинта
    Русское название в мировом прокате: The People vs. Larry Flynt
    Создали в: 1996
    Категория жанра: драма, биография
    Главный режиссер: Милош Форман /Milos Forman/

    Актеры
    Вуди Харрельсон /Woody Harrelson/, Кортни Лав /Courtney Love/, Эдвард Нортон /Edward Norton/ , Бретт Харрельсон /Brett Harrelson/, Донна Хэновер /Donna Hanover/, Джеймс Кромуэлл /James Cromwell/, Криспин Гловер /Crispin Glover/, Винсент Скьявелли /Vincent Schiavelli/......

    Сюжет фильма

    Ларри Флинт — герой семидесятых, эпохи сексуальной революции, наркотиков и культурных катаклизмов. Он видел — людям нужно нечто большее, чем ТВ и пикники по уик-эндам. Им нужны зрелища.
    Обладая завидной интуицией он решил сделать шаг, который навсегда изменил его жизнь и разделил общество на тех, кто был за и против него. Он стал издавать порножурнал. Но Hustler стал не просто журналом. Это был вызов обществу. И оскорбленное общество решило наказать Ларри Флинта.

    Награды и номинации:

    Оскар, 1997 год
    Номинации (2):
    - Лучшая мужская роль (Вуди Харрельсон)
    - Лучший режиссер (Милош Форман)
    Золотой глобус, 1997 год
    Победитель (2):
    - Лучший режиссер (Милош Форман)
    - Лучший сценарий
    Номинации (3):
    - Лучший фильм (драма)
    - Лучшая мужская роль (драма) (Вуди Харрельсон)
    - Лучшая женская роль (драма) (Кортни Лав)
    Премия канала MTV, 1997 год
    Номинации (1):
    - Прорыв года (Кортни Лав)
    Берлинский кинофестиваль, 1997 год
    Победитель (1):
    - Золотой Медведь
    Европейская киноакадемия, 1997 год
    Победитель (1):
    - Приз за выдающиеся достижения в мировом кино (Милош Форман)
    Премия Гильдии актеров, 1997 год
    Номинации (1):
    - Лучшая мужская роль (Вуди Харрельсон)

    Снималось в: США
    Время просмотра: 02: 09: 28
    Перевод текста: Русский дублированный +Русский профессиональный, многоголосый (R5) +Русский профессиональный, многоголосый (Первый канал)
    Отдельно на Яндекс Диске:
    Украинский профессиональный, многоголосый (Новый канал) (отдельно)
    Оригинальная, английская дорожка (отдельно)
    Файл
    Кодек для видео: MKV, H.264
    Качество фильма: BDRip 720p (Source: BDRemux)
    Информация о видео: 5397 kbps; 0.323 bit/pixel; 1280 x 532; 2.37: 1; 23.976 fps
    Информация о звуке #1: AC3 Dolby Digital; 384.00 kbps, 6 Ch - RUS DUB
    Информация о звуке #2: AC3 Dolby Digital; 192.00 kbps, 2 Ch - RUS MVO R5
    Информация о звуке #3: AC3 Dolby Digital; 192.00 kbps, 2 Ch - RUS MVO Pervyi
    Информация о звуке #4: AC3 Dolby Digital; 448.00 kbps, 6 Ch - UKR MVO (отдельно/скачать с Яндекс Диск)
    Информация о звуке #5: AC3 Dolby Digital; 448.00 kbps, 6 Ch - ENG (отдельно/скачать с Яндекс Диск)
    Субтитры: Русские, Английские.
    Размер скачиваемого торрента: 5.58 GB
    SAMPLE/скачать с Яндекс Диск
    MediaInfo

    Общее
    Уникальный идентификатор : 192633717700408647795574054642349475216 (0x90EBE78EBD5F08F1858A04B890D38590)
    Полное имя : Narod.Protiv.Larri.Flinta.1996.TRIPLERUS.BDRip.720p.h264.AC3.-HQ-ViDEO.mkv
    Формат : Matroska
    Версия формата : Version 2
    Размер файла : 5, 58 Гбайт
    Продолжительность : 2 ч. 9 м.
    Режим общего битрейта : Переменный
    Общий поток : 6168 Кбит/сек
    Название фильма : The People vs. Larry Flynt (1996)
    Дата кодирования : UTC 2012-03-03 08: 50: 56
    Программа кодирования : mkvmerge v3.3.0 (;Language;) built on Mar 24 2010 14: 59: 24
    Библиотека кодирования : libebml v0.8.0 + libmatroska v0.9.0
    Видео
    Идентификатор : 1
    Формат : AVC
    Формат/Информация : Advanced Video Codec
    Профиль формата : High@L4.1
    Параметр CABAC формата : Да
    Параметр ReFrames формата : 6 кадров
    Идентификатор кодека : V_MPEG4/ISO/AVC
    Продолжительность : 2 ч. 9 м.
    Вид битрейта : Переменный
    Битрейт : 5278 Кбит/сек
    Максимальный битрейт : 5397 Кбит/сек
    Ширина : 1280 пикселей
    Высота : 532 пикселя
    Соотношение сторон : 2, 40: 1
    Режим частоты кадров : Постоянный
    Частота кадров : 23, 976 кадра/сек
    Цветовое пространство : YUV
    Субдискретизация насыщенности : 4: 2: 0
    Битовая глубина : 8 бит
    Тип развёртки : Прогрессивная
    Бит/(Пиксели*Кадры) : 0.323
    Размер потока : 4, 77 Гбайт (86%)
    Заголовок : Encoded by GYN
    Default : Да
    Forced : Нет
    Аудио #1
    Идентификатор : 2
    Формат : AC-3
    Формат/Информация : Audio Coding 3
    Расширение режима : CM (complete main)
    Параметр Endianness формата : Big
    Идентификатор кодека : A_AC3
    Продолжительность : 2 ч. 9 м.
    Вид битрейта : Постоянный
    Битрейт : 384 Кбит/сек
    Каналы : 6 каналов
    Расположение каналов : Front: L C R, Side: L R, LFE
    Частота : 48, 0 КГц
    Метод сжатия : С потерями
    Размер потока : 356 Мбайт (6%)
    Заголовок : DUB
    Язык : Russian
    Default : Да
    Forced : Нет
    Аудио #2
    Идентификатор : 3
    Формат : AC-3
    Формат/Информация : Audio Coding 3
    Расширение режима : CM (complete main)
    Параметр Endianness формата : Big
    Идентификатор кодека : A_AC3
    Продолжительность : 2 ч. 9 м.
    Вид битрейта : Постоянный
    Битрейт : 192 Кбит/сек
    Каналы : 2 канала
    Расположение каналов : Front: L R
    Частота : 48, 0 КГц
    Метод сжатия : С потерями
    Размер потока : 178 Мбайт (3%)
    Заголовок : MVO R5
    Язык : Russian
    Default : Нет
    Forced : Нет
    Аудио #3
    Идентификатор : 4
    Формат : AC-3
    Формат/Информация : Audio Coding 3
    Расширение режима : CM (complete main)
    Параметр Endianness формата : Big
    Идентификатор кодека : A_AC3
    Продолжительность : 2 ч. 9 м.
    Вид битрейта : Постоянный
    Битрейт : 192 Кбит/сек
    Каналы : 2 канала
    Расположение каналов : Front: L R
    Частота : 48, 0 КГц
    Метод сжатия : С потерями
    Размер потока : 178 Мбайт (3%)
    Заголовок : MVO
    Язык : Russian
    Default : Нет
    Forced : Нет
    Текст #1
    Идентификатор : 5
    Формат : UTF-8
    Идентификатор кодека : S_TEXT/UTF8
    Идентификатор кодека/Информация : UTF-8 Plain Text
    Язык : Russian
    Default : Нет
    Forced : Нет
    Текст #2
    Идентификатор : 6
    Формат : UTF-8
    Идентификатор кодека : S_TEXT/UTF8
    Идентификатор кодека/Информация : UTF-8 Plain Text
    Язык : English
    Default : Нет
    Forced : Нет





    Релиз подготовил: HQ-ViDEO
    Автор рипа: GYN

    Онлайн видео Народ против Ларри Флинта


    Размер скачиваемого торрента: 5.58 GB (5990056193 Bytes)

    Народ против Ларри Флинта/The People vs. Larry Flynt (1996) BDRip 720p от HQ-ViDEO | D, P
    загрузка...
    Рейтинг →
     (голосов: 1, оценка 4/5, голосовать можно 1 раз )

    Другие торренты по теме:

  • Специальный корреспондент. Народ против (2013) SATRip
  • Народ против Ларри Флинта / The People vs. Larry Flynt (1996) BDRip 720p от GYN
  • Народ против Ларри Флинта / The People vs. Larry Flynt (1996) BDRip 720p от leonardo 59 Scarabey


    • Комментарии (0):

      Информация

      Информация

        Посетители, находящиеся в группе Гости, не могут оставлять комментарии в данной новости.

        ↓ Меню



        ↓ Опрос

        А Вы добавили сайт в закладки?
        Да
        Не


        Top 10 за месяц (Фильмы)