.
Авторизация | Регистрация
Хочешь лучшие торренты? Добавь свой email!
Добавить
» » Змей и радуга / The Serpent and the Rainbow (1988) DVD5 | P торрент скачать бесплатно




    Змей и радуга / The Serpent and the Rainbow (1988) DVD5 | P торрент скачать бесплатно

    Опубликовал: Админ | Дата: 18-06-2015, 05:10 | Просмотров: 160



    Детально о кино
    Русское название: Змей и радуга
    Русское название в мировом прокате: The Serpent and the Rainbow
    Создали в: 1988
    Категория жанра: ужасы, фэнтези, триллер, детектив
    Главный режиссер: Уэс Крэйвен

    Актеры
    Билл Пуллман, Кэти Тайсон, Закес Мокае, Пол Уинфилд, Брент Дженнингс, Конрад Робертс, Баджа Джола, Тереза Меррит, Майкл Гоф, Пол Гилфойл

    Сюжет фильма

    Эта картина основана на реальных событиях, происшедших с ученым Уэйдом Дэйвисом. Деннис Алан, антрополог из Гарвардского Университета, отправляется на родину черной магии Вуду — остров Гаити, чтобы найти место изготовления странного порошка.
    Местная легенда гласит, что порошок этот способен возвращать к жизни мертвецов. На острове Алану предстоит столкнуться со страшной наукой, история которой уходит в глубь веков, наукой, ниспровергающей все человеческие представления о жизни и смерти.


    лицам до 17 лет обязательно присутствие взрослого
    Снималось в: США
    Киностудия: Universal Pictures
    Время просмотра: 94 мин./01: 34
    Перевод текста: профессиональный (многоголосый, закадровый)
    Файл
    Кодек для видео: MPEG2
    Качество фильма: DVD5 Настроение Видео
    Информация о видео: PAL 16: 9 (720x576@1024x576) VBR 5095 Kbps, 25.000 fps
    Информация о звуке 1: Dolby AC3, 6 ch, 48.0 KHz, 448 Kbps (русский)
    Информация о звуке 2: Dolby AC3, 2 ch, 48.0 KHz, 224 Kbps (английский)
    Информация о звуке 3: Dolby AC3, 2 ch, 48.0 KHz, 224 Kbps (немецкий)
    Субтитры: английские, немецкие, голландские, шведские, норвежские, датские, финские
    MediaInfo
    Общее
    Полное имя : E: Zmey i radyga DVD5VIDEO_TSVTS_02_1.VOB
    Формат : MPEG-PS
    Размер файла : 1024 Мбайт
    Продолжительность : 23 м.
    Режим общего битрейта : Переменный
    Общий поток : 6113 Кбит/сек
    Видео
    Идентификатор : 224 (0xE0)
    Формат : MPEG Video
    Версия формата : Version 2
    Профиль формата : Main@Main
    Параметр BVOP формата : Да
    Параметр матрицы формата : Выборочная
    Параметр GOP формата : M=3, N=12
    Структура изображения : Frame
    Продолжительность : 23 м.
    Вид битрейта : Переменный
    Битрейт : 5095 Кбит/сек
    Максимальный битрейт : 9800 Кбит/сек
    Ширина : 720 пикселей
    Высота : 576 пикселей
    Соотношение сторон : 16: 9
    Частота кадров : 25, 000 кадров/сек
    Стандарт вещания : PAL
    Цветовое пространство : YUV
    Субдискретизация насыщенности : 4: 2: 0
    Битовая глубина : 8 бит
    Тип развёртки : Чересстрочная
    Порядок развёртки : Верхнее поле первое
    Метод сжатия : С потерями
    Бит/(Пиксели*Кадры) : 0.491
    Размер потока : 853 Мбайт (83%)
    Аудио #1
    Идентификатор : 189 (0xBD)-128 (0x80)
    Формат : AC-3
    Формат/Информация : Audio Coding 3
    Расширение режима : CM (complete main)
    Параметр Endianness формата : Big
    Режим смешивания : DVD-Video
    Продолжительность : 23 м.
    Вид битрейта : Постоянный
    Битрейт : 448 Кбит/сек
    Каналы : 6 каналов
    Расположение каналов : Front: L C R, Side: L R, LFE
    Частота : 48, 0 КГц
    Метод сжатия : С потерями
    Размер потока : 75, 0 Мбайт (7%)
    Аудио #2
    Идентификатор : 189 (0xBD)-129 (0x81)
    Формат : AC-3
    Формат/Информация : Audio Coding 3
    Расширение режима : CM (complete main)
    Параметр Endianness формата : Big
    Режим смешивания : DVD-Video
    Продолжительность : 23 м.
    Вид битрейта : Постоянный
    Битрейт : 224 Кбит/сек
    Каналы : 2 канала
    Расположение каналов : Front: L R
    Частота : 48, 0 КГц
    Метод сжатия : С потерями
    Размер потока : 37, 5 Мбайт (4%)
    Аудио #3
    Идентификатор : 189 (0xBD)-130 (0x82)
    Формат : AC-3
    Формат/Информация : Audio Coding 3
    Расширение режима : CM (complete main)
    Параметр Endianness формата : Big
    Режим смешивания : DVD-Video
    Продолжительность : 23 м.
    Вид битрейта : Постоянный
    Битрейт : 224 Кбит/сек
    Каналы : 2 канала
    Расположение каналов : Front: L R
    Частота : 48, 0 КГц
    Метод сжатия : С потерями
    Размер потока : 37, 5 Мбайт (4%)
    Текст #1
    Идентификатор : 189 (0xBD)-32 (0x20)
    Формат : RLE
    Формат/Информация : Run-length encoding
    Режим смешивания : DVD-Video
    Текст #2
    Идентификатор : 189 (0xBD)-33 (0x21)
    Формат : RLE
    Формат/Информация : Run-length encoding
    Режим смешивания : DVD-Video
    Текст #3
    Идентификатор : 189 (0xBD)-34 (0x22)
    Формат : RLE
    Формат/Информация : Run-length encoding
    Режим смешивания : DVD-Video
    Текст #4
    Идентификатор : 189 (0xBD)-35 (0x23)
    Формат : RLE
    Формат/Информация : Run-length encoding
    Режим смешивания : DVD-Video
    Текст #5
    Идентификатор : 189 (0xBD)-36 (0x24)
    Формат : RLE
    Формат/Информация : Run-length encoding
    Режим смешивания : DVD-Video
    Текст #6
    Идентификатор : 189 (0xBD)-37 (0x25)
    Формат : RLE
    Формат/Информация : Run-length encoding
    Режим смешивания : DVD-Video
    Текст #7
    Идентификатор : 189 (0xBD)-38 (0x26)
    Формат : RLE
    Формат/Информация : Run-length encoding
    Режим смешивания : DVD-Video
    Меню
    Скриншоты


    Залил: carisha

    Онлайн видео Змей и радуга


    Размер скачиваемого торрента: 4.12 GB (4425383080 Bytes)

    Змей и радуга/The Serpent and the Rainbow (1988) DVD5 | P
    загрузка...
    Рейтинг →
     (голосов: 1, оценка 5/5, голосовать можно 1 раз )

    Другие торренты по теме:

  • Змей и радуга / The Serpent and the Rainbow (1988) BDRip 720p | P, Р2, А
  • Змей и радуга / The Serpent and the Rainbow (1988) BDRip от HQCLUB скачать через торрент бесплатно
  • Змей и радуга / The Serpent and the Rainbow (1988) BDRip от ExKinoRay
  • Змей и радуга / The Serpent and the Rainbow (1988) BDRip-AVC от ExKinoRay
  • Змей и радуга / The Serpent and the Rainbow (1988) BDRip скачать через торрент бесплатно
  • Алеша Попович и Тугарин Змей (2004) BDRip-AVC | iPad
  • Добрыня Никитич и Змей Горыныч (2006) BDRip-AVC | iPad
  • Алеша Попович и Тугарин Змей (2004) DVD9


    • Комментарии (0):

      Информация

      Информация

        Посетители, находящиеся в группе Гости, не могут оставлять комментарии в данной новости.

        ↓ Меню



        ↓ Опрос

        А Вы добавили сайт в закладки?
        Да
        Не


        Top 10 за месяц (Фильмы)