.
Авторизация | Регистрация
Хочешь лучшие торренты? Добавь свой email!
Добавить
» » Во имя жизни (1947) DVDRip от New-Team торрент скачать бесплатно




    Во имя жизни (1947) DVDRip от New-Team торрент скачать бесплатно

    Опубликовал: Админ | Дата: 19-06-2015, 05:03 | Просмотров: 133



    Снималось в: СССР
    Создали в: Ленфильм
    Категория жанра: драма
    Создали в: 1947
    Время просмотра: 01: 37: 36
    Перевод текста: Не требуется
    Субтитры подготовлены: нет
    Оригинальная аудиодорожка: русский
    Главный режиссер: Иосиф Хейфиц, Александр Зархи

    Актеры

    Виктор Хохряков, Михаил Кузнецов, Олег Жаков, Клавдия Лепанова, Людмила Шабалина, Александр Зражевский, Николай Черкасов...
    Описание:
    Три друга, три молодых хирурга, вернувшись с войны, начинают работу над сложной медицинской проблемой. Напряженный труд не приводит к желаемым результатам, и двое из них перестают верить в успех…



    Источник: DVD5 R5
    Качество фильма видео: DVDRip
    Тип видео видео: AVI
    Информация о видео: 688x512 (4: 3), 25 fps, XviD ~ 1684 kbps avg, 0.191 bit/pixel
    Информация о звуке: 48 kHz, Dolby Digital AC3 5.1, 448 kbps
    Раздача от:
    MediaInfo

    Общее
    Полное имя : Vo.imya.zhizni.1947.DVDRip_New-team_by_AVP_Studio.avi
    Формат : AVI
    Формат/Информация : Audio Video Interleave
    Размер файла : 1, 46 Гбайт
    Продолжительность : 1 ч. 37 м.
    Общий поток : 2141 Кбит/сек
    Программа кодирования : VirtualDubModRus 1.5.10.2 (build 2542/release)
    Библиотека кодирования : VirtualDubMod build 2542/release
    Видео
    Идентификатор : 0
    Формат : MPEG-4 Visual
    Профиль формата : Advanced Simple@L5
    Параметр BVOP формата : 1
    Параметр QPel формата : Нет
    Параметр GMC формата : Без точки перехода
    Параметр матрицы формата : Выборочная
    Идентификатор кодека : XVID
    Идентификатор кодека/Подсказка : XviD
    Продолжительность : 1 ч. 37 м.
    Битрейт : 1684 Кбит/сек
    Ширина : 688 пикселей
    Высота : 512 пикселей
    Соотношение сторон : 4: 3
    Частота кадров : 25, 000 кадров/сек
    Цветовое пространство : YUV
    Субдискретизация насыщенности : 4: 2: 0
    Битовая глубина : 8 бит
    Тип развёртки : Прогрессивная
    Метод сжатия : С потерями
    Бит/(Пиксели*Кадры) : 0.191
    Размер потока : 1, 15 Гбайт (79%)
    Библиотека кодирования : XviD 73
    Аудио
    Идентификатор : 1
    Формат : AC-3
    Формат/Информация : Audio Coding 3
    Расширение режима : CM (complete main)
    Параметр Endianness формата : Big
    Идентификатор кодека : 2000
    Продолжительность : 1 ч. 37 м.
    Вид битрейта : Постоянный
    Битрейт : 448 Кбит/сек
    Каналы : 6 каналов
    Расположение каналов : Front: L C R, Side: L R, LFE
    Частота : 48, 0 КГц
    Битовая глубина : 16 бит
    Метод сжатия : С потерями
    Размер потока : 313 Мбайт (21%)
    Выравнивание : Разделение по промежуткам
    Продолжительность промежутка : 40 мс. (1, 00 видеокадр)
    Время предзагрузки промежутка : 500 мс

    Скриншоты



    Залил: AVPStudio

    Онлайн видео Во имя жизни (1947) DVDRip от New


    Размер скачиваемого торрента: 1.46 GB (1567477760 Bytes)

    Во имя жизни (1947) DVDRip от New-Team
    загрузка...
    Рейтинг →
     (голосов: 1, оценка 5/5, голосовать можно 1 раз )

    Другие торренты по теме:

  • Во имя справедливости / Нико-4 / Out for Justice (1991) BDRip 1080p
  • Во имя короля: История осады подземелья / In the Name of the King: A Dungeon Siege Tale (2007) DVD9 от NovaLan
  • Во имя короля 2 / In the Name of the King 2: Two Worlds (2011) DVD9 от NovaLan
  • Во имя отца / In the Name of the Father (1993) Blu-ray Disc
  • Нико-4 / Во имя справедливости / Out for Justice (1991) BDRip от HQCLUB | ReRip
  • Во имя отца / In the Name of the Father (1993) BDRip от HQ-ViDEO
  • Во имя справедливости / Out for Justice (1991) BDRip by msltel | D, P, P2, A скачать через торрент бесплатно
  • Во имя справедливости / Out for Justice (1991) BDRip 720p by msltel | D, P, P2, A скачать через торрент бесплатно


    • Комментарии (0):

      Информация

      Информация

        Посетители, находящиеся в группе Гости, не могут оставлять комментарии в данной новости.

        ↓ Меню



        ↓ Опрос

        А Вы добавили сайт в закладки?
        Да
        Не


        Top 10 за месяц (Фильмы)