.
Авторизация | Регистрация
» » Под электрическими облаками (2015) WEB-DL 720p | iTunes скачать торрент бесплатно




    Под электрическими облаками (2015) WEB-DL 720p | iTunes скачать торрент бесплатно

    Опубликовал: Админ | Дата: 19-06-2015, 05:06 | Просмотров: 132



    Детально о кино
    Русское название: Под электрическими облаками
    Создали в: 2015
    Категория жанра: драма
    Главный режиссер: Алексей Герман мл.

    Актеры
    Мераб Нинидзе, Анастасия Мельникова, Чулпан Хаматова, Вениамин Кац, Петр Гасовский, Константин Зелигер, Виктор Бугаков, Виктория Короткова, Луис Франк, Карим Пакачаков, Мария Цап-Страшилина, Анастасия Фомина, Мария Олейникова, Филипп Дьячков, Рамиль Салахутдинов, Алексей Вертинский, Сергей Сипливый, Ирина Соколова, Владимир Раннев, Дмитрий Воздвиженский

    Сюжет фильма
    Действие фильма происходит в 2017 году. Мир находится в ожидании большой войны. Герои фильма живут совершенно разными жизнями, но каждый из них принадлежит к тем, кого в классической русской литературе называют лишними людьми. Это история об их жизни, преодолениях и борьбе. Это также история одного недостроенного здания, вокруг которого оказались разбросаны их судьбы.


    Снималось в: Россия, Польша, Украина
    Время просмотра: 02: 17: 42
    Тип перевода: Оригинальное iTunes
    Файл
    Тип видео: MKV
    Качество фильма: WEB-DL 720p
    Информация о видео: 3940 kb/s, 1280x532
    Информация о звуке: AC3, 384 Kb/s (6 ch)
    MI

    Format : Matroska
    Format version : Version 4/Version 2
    File size : 4.24 GiB
    Duration : 2h 17mn
    Overall bit rate : 4 412 Kbps
    Encoded date : UTC 2015-06-18 18: 19: 55
    Writing application : mkvmerge v6.9.1 (;Blue Panther;) 64bit built on Apr 18 2014 18: 23: 38
    Writing library : libebml v1.3.0 + libmatroska v1.4.1
    Video
    ID : 1
    Format : AVC
    Format/Info : Advanced Video Codec
    Format profile : Main@L3.1
    Format settings, CABAC : No
    Format settings, ReFrames : 2 frames
    Codec ID : V_MPEG4/ISO/AVC
    Duration : 2h 17mn
    Bit rate : 3 940 Kbps
    Width : 1 280 pixels
    Height : 532 pixels
    Display aspect ratio : 2.40: 1
    Frame rate mode : Constant
    Frame rate : 24.000 fps
    Color space : YUV
    Chroma subsampling : 4: 2: 0
    Bit depth : 8 bits
    Scan type : Progressive
    Bits/(Pixel*Frame) : 0.241
    Stream size : 3.79 GiB (89%)
    Language : English
    Default : Yes
    Forced : No
    Color primaries : BT.709
    Transfer characteristics : BT.709
    Matrix coefficients : BT.709
    Audio
    ID : 2
    Format : AC-3
    Format/Info : Audio Coding 3
    Mode extension : CM (complete main)
    Format settings, Endianness : Big
    Codec ID : A_AC3
    Duration : 2h 17mn
    Bit rate mode : Constant
    Bit rate : 384 Kbps
    Channel(s) : 6 channels
    Channel positions : Front: L C R, Side: L R, LFE
    Sampling rate : 48.0 KHz
    Bit depth : 16 bits
    Compression mode : Lossy
    Stream size : 378 MiB (9%)
    Language : Russian
    Default : Yes
    Forced : No
    Menu
    00: 00: 00.000 : en: Р“Рава 1
    00: 05: 18.000 : en: Р“Рава 2
    00: 11: 56.000 : en: Р“Рава 3
    00: 18: 39.000 : en: Р“Рава 4
    00: 21: 29.000 : en: Р“Рава 5
    00: 26: 55.000 : en: Р“Рава 6
    00: 29: 54.000 : en: Р“Рава 7
    00: 36: 44.000 : en: Р“Рава 8
    00: 45: 31.000 : en: Р“Рава 9
    00: 52: 30.000 : en: Р“Рава 10
    00: 59: 20.000 : en: Р“Рава 11
    01: 06: 54.000 : en: Р“Рава 12
    01: 13: 18.000 : en: Р“Рава 13
    01: 20: 11.000 : en: Р“Рава 14
    01: 26: 09.000 : en: Р“Рава 15
    01: 32: 40.000 : en: Р“Рава 16
    01: 37: 37.000 : en: Р“Рава 17
    01: 44: 09.000 : en: Р“Рава 18
    01: 48: 23.000 : en: Р“Рава 19
    01: 53: 46.000 : en: Р“Рава 20
    01: 58: 08.000 : en: Р“Рава 21
    02: 04: 56.000 : en: Р“Рава 22
    Скриншоты




    Онлайн видео Под электрическими облаками (2015) WEB-DL 720p


    Размер скачиваемого торрента: 4.24 GB (4556583406 Bytes)

    Под электрическими облаками (2015) WEB-DL 720p | iTunes
    загрузка...
    Рейтинг →
     (голосов: 1, оценка 3/5, голосовать можно 1 раз )

    Другие торренты по теме:

  • Под электрическими облаками (2015) HDRip скачать торрент бесплатно
  • Под электрическими облаками (2015) WEB-DLRip скачать торрент бесплатно
  • Под электрическими облаками (2015) WEB-DLRip скачать торрент бесплатно
  • Под электрическими облаками (2015) WEB-DL 1080p | iTunes скачать торрент бесплатно


    • Комментарии (0):

      Информация

      Информация

        Посетители, находящиеся в группе Гости, не могут оставлять комментарии в данной новости.

        ↓ Меню



        ↓ Опрос

        А Вы добавили сайт в закладки?
        Да
        Не


        Top 10 за неделю (Фильмы)