.
Авторизация | Регистрация
Хочешь лучшие торренты? Добавь свой email!
Добавить
» » Фокус / Focus (2015) BDRip-AVC | Лицензия торрент скачать бесплатно




    Фокус / Focus (2015) BDRip-AVC | Лицензия торрент скачать бесплатно

    Опубликовал: Админ | Дата: 19-06-2015, 05:10 | Просмотров: 145



    Детально о кино
    Русское название: Фокус
    Русское название в мировом прокате: Focus
    Создали в: 2015
    Категория жанра: Драма, мелодрама, комедия, криминал
    Снималось в: США, Kramer Sigman Films, Zaftig Films
    Главный режиссер: Гленн Фикарра, Джон Рекуа

    Актеры
    Уилл Смит, Марго Робби, Адриан Мартинес, Джералд МакРэйни, Родриго Санторо, Б. Д. Вонг, Бреннан Браун, Роберт Тейлор (II), Грифф Ферст, Стефани Онор, Дэвид Стэнфорд, Доминик Фумуса, Стив Ким, Дон Йессо, Хуан Минухин, Хано Сейтун, Мелания Ленуар, Пьетро Джан, Жустина Бустос, Паула Браска

    Сюжет фильма
    Опытный аферист и умелый манипулятор Никки становится жертвой не самой удачной разводки, за которой стоит красавица Джесс. В ответ на насмешки бывалого вора девушка ставит своей целью влиться в команду Никки. Очень скоро ей это удается, больше того, Джесс проявляет недюжинный талант и умения, но опасающийся того, что личная привязанность, а тем более глубокие чувства могут помешать делу, Никки решает расстаться с новой пассией. Спустя три года бывшие любовники снова встречаются во время работы над одной серьезной мошеннической схемой, однако теперь они находятся по разные стороны баррикад…
    Файл
    Качество фильма: BDRip (AVC)
    Информация о видео: MPEG-4 AVC, 2500 Кбит/с, 1024x576
    Информация о звуке: Русский, английский (AC3, 6 ch, 448 Кбит/с), украинский (AC3, 2 ch, 192 Кбит/с)
    Размер скачиваемого торрента: 2.62 ГБ
    Время просмотра: 01: 44: 44
    Перевод текста: Дублированный лицензия
    Субтитры: Русские, английские
    Семпл
    MI
    Общее
    Уникальный идентификатор : 173866846531494913196435760968054956664 (0x82CD895F158937AA9F80E52B33156278)
    Полное имя : C: Focus.2015.BDRip-AVC.by.bog3417.mkv
    Формат : Matroska
    Версия формата : Version 2
    Размер файла : 2, 62 Гбайт
    Продолжительность : 1 ч. 44 м.
    Общий поток : 3587 Кбит/сек
    Название фильма : Фокус/Focus (2015) BDRip-AVC by bog3417
    Дата кодирования : UTC 2015-06-18 18: 42: 46
    Программа кодирования : mkvmerge v7.9.0 (;Birds;) 64bit
    Библиотека кодирования : libebml v1.3.1 + libmatroska v1.4.2
    Attachements : Cover.jpg
    Видео
    Идентификатор : 1
    Формат : AVC
    Формат/Информация : Advanced Video Codec
    Профиль формата : High@L4.1
    Параметр CABAC формата : Да
    Параметр ReFrames формата : 11 кадров
    Идентификатор кодека : V_MPEG4/ISO/AVC
    Продолжительность : 1 ч. 44 м.
    Битрейт : 2500 Кбит/сек
    Ширина : 1024 пикселя
    Высота : 576 пикселей
    Соотношение сторон : 16: 9
    Режим частоты кадров : Постоянный
    Частота кадров : 23, 976 кадра/сек
    Цветовое пространство : YUV
    Субдискретизация насыщенности : 4: 2: 0
    Битовая глубина : 8 бит
    Тип развёртки : Прогрессивная
    Бит/(Пиксели*Кадры) : 0.177
    Размер потока : 1, 78 Гбайт (68%)
    Заголовок : Фокус/Focus (2015) BDRip-AVC by bog3417
    Библиотека кодирования : x264 core 146 r2538 121396c
    Настройки программы : cabac=1/ref=11/deblock=1: -3: -3/analyse=0x3: 0x33/me=umh/subme=11/psy=1/psy_rd=1.00: 0.05/mixed_ref=1/me_range=32/chroma_me=1/trellis=2/8x8dct=1/cqm=0/deadzone=21, 11/fast_pskip=0/chroma_qp_offset=-3/threads=12/lookahead_threads=2/sliced_threads=0/nr=0/decimate=0/interlaced=0/bluray_compat=0/constrained_intra=0/bframes=9/b_pyramid=2/b_adapt=2/b_bias=0/direct=3/weightb=1/open_gop=1/weightp=2/keyint=240/keyint_min=23/scenecut=40/intra_refresh=0/rc_lookahead=60/rc=2pass/mbtree=1/bitrate=2500/ratetol=1.0/qcomp=0.60/qpmin=0/qpmax=69/qpstep=4/cplxblur=20.0/qblur=0.5/ip_ratio=1.40/aq=3: 0.90
    Язык : English
    Default : Да
    Forced : Нет
    Аудио #1
    Идентификатор : 2
    Формат : AC-3
    Формат/Информация : Audio Coding 3
    Расширение режима : CM (complete main)
    Параметр Endianness формата : Big
    Идентификатор кодека : A_AC3
    Продолжительность : 1 ч. 44 м.
    Вид битрейта : Постоянный
    Битрейт : 448 Кбит/сек
    Каналы : 6 каналов
    Расположение каналов : Front: L C R, Side: L R, LFE
    Частота : 48, 0 КГц
    Метод сжатия : С потерями
    Размер потока : 336 Мбайт (12%)
    Заголовок : АС3 5.1 @ 448 kbps - Dub, BD CEE
    Язык : Russian
    Default : Да
    Forced : Нет
    Аудио #2
    Идентификатор : 3
    Формат : AC-3
    Формат/Информация : Audio Coding 3
    Расширение режима : CM (complete main)
    Параметр Endianness формата : Big
    Идентификатор кодека : A_AC3
    Продолжительность : 1 ч. 44 м.
    Вид битрейта : Постоянный
    Битрейт : 192 Кбит/сек
    Каналы : 2 канала
    Расположение каналов : Front: L R
    Частота : 48, 0 КГц
    Метод сжатия : С потерями
    Размер потока : 144 Мбайт (5%)
    Заголовок : АС3 2.0 @ 192 kbps - Dub, iTunes Russia
    Язык : Ukrainian
    Default : Нет
    Forced : Нет
    Аудио #3
    Идентификатор : 4
    Формат : AC-3
    Формат/Информация : Audio Coding 3
    Расширение режима : CM (complete main)
    Параметр Endianness формата : Big
    Идентификатор кодека : A_AC3
    Продолжительность : 1 ч. 44 м.
    Вид битрейта : Постоянный
    Битрейт : 448 Кбит/сек
    Каналы : 6 каналов
    Расположение каналов : Front: L C R, Side: L R, LFE
    Частота : 48, 0 КГц
    Метод сжатия : С потерями
    Размер потока : 336 Мбайт (12%)
    Заголовок : АС3 5.1 @ 448 kbps - Original
    Язык : English
    Default : Нет
    Forced : Нет
    Текст #1
    Идентификатор : 5
    Формат : UTF-8
    Идентификатор кодека : S_TEXT/UTF8
    Идентификатор кодека/Информация : UTF-8 Plain Text
    Заголовок : Full
    Язык : Russian
    Default : Нет
    Forced : Нет
    Текст #2
    Идентификатор : 6
    Формат : UTF-8
    Идентификатор кодека : S_TEXT/UTF8
    Идентификатор кодека/Информация : UTF-8 Plain Text
    Заголовок : Forced
    Язык : Russian
    Default : Нет
    Forced : Нет
    Текст #3
    Идентификатор : 7
    Формат : UTF-8
    Идентификатор кодека : S_TEXT/UTF8
    Идентификатор кодека/Информация : UTF-8 Plain Text
    Заголовок : Forced
    Язык : Ukrainian
    Default : Нет
    Forced : Нет
    Текст #4
    Идентификатор : 8
    Формат : UTF-8
    Идентификатор кодека : S_TEXT/UTF8
    Идентификатор кодека/Информация : UTF-8 Plain Text
    Заголовок : Full
    Язык : English
    Default : Нет
    Forced : Нет
    Текст #5
    Идентификатор : 9
    Формат : UTF-8
    Идентификатор кодека : S_TEXT/UTF8
    Идентификатор кодека/Информация : UTF-8 Plain Text
    Заголовок : Full SDH
    Язык : English
    Default : Нет
    Forced : Нет
    Текст #6
    Идентификатор : 10
    Формат : UTF-8
    Идентификатор кодека : S_TEXT/UTF8
    Идентификатор кодека/Информация : UTF-8 Plain Text
    Заголовок : Full SDH Colored
    Язык : English
    Default : Нет
    Forced : Нет
    Меню
    00: 00: 00.000 : : Chapter 01
    00: 09: 17.974 : : Chapter 02
    00: 18: 55.217 : : Chapter 03
    00: 30: 22.903 : : Chapter 04
    00: 40: 56.077 : : Chapter 05
    00: 49: 16.368 : : Chapter 06
    01: 00: 10.481 : : Chapter 07
    01: 11: 02.756 : : Chapter 08
    01: 20: 27.488 : : Chapter 09
    01: 28: 33.890 : : Chapter 10
    01: 39: 19.619 : : Chapter 11
    01: 44: 43.902 : : Chapter 12

    Скриншоты



    Релиз подготовил:
    Размер скачиваемого торрента: 2.62 GB (2817820812 Bytes)

    Фокус/Focus (2015) BDRip-AVC | Лицензия
    загрузка...
    Рейтинг →
     (голосов: 1, оценка 4/5, голосовать можно 1 раз )

    Другие торренты по теме:

  • Фокус-покус / Hocus Pocus (1993) BDRip 1080p
  • Без обмана: Фокус с креветками (2013) IPTVRip
  • Фокус (2015)
  • Фокус / Focus (2015) CAMRip от UNIONGANG
  • Фокус / Focus (2015) WEBRip | Звук с CAMRip
  • Фокус / Focus (2015) HDRip | Лицензия *
  • Фокус / Focus (2015) WEB-DLRip | Чистый звук
  • Фокус / Focus (2015) WEB-DLRip от Scarabey | iTunes


    • Комментарии (0):

      Информация

      Информация

        Посетители, находящиеся в группе Гости, не могут оставлять комментарии в данной новости.

        ↓ Меню



        ↓ Опрос

        А Вы добавили сайт в закладки?
        Да
        Не


        Top 10 за месяц (Фильмы)