.
Авторизация | Регистрация
» » Ганмен / The Gunman (2015) WEB-DL 720p | Звук с TS скачать торрент бесплатно




    Ганмен / The Gunman (2015) WEB-DL 720p | Звук с TS скачать торрент бесплатно

    Опубликовал: Админ | Дата: 19-06-2015, 05:11 | Просмотров: 97



    Детально о кино
    Русское название: Ганмен
    Русское название в мировом прокате: The Gunman
    Создали в: 2015
    Категория жанра: боевик, триллер, драма, криминал, детектив
    Главный режиссер: Пьер Морель

    Актеры
    Шон Пенн, Хавьер Бардем, Рэй Уинстон, Жазмин Тринка, Идрис Эльба, Марк Райлэнс, Петер Францен, Билли Биллинхэм, Дэниэл Адегбойега, Адэ Ойефесо

    Сюжет фильма
    Джим Террье — ганмен, международный наемник высочайшего класса. Но когда в Компании начинают подчищать хвосты, Джим сам становится мишенью. Чтобы выжить, Джим угрожает обнародовать имеющийся у него компромат и обращается к бывшему напарнику Феликсу. Однако у Феликса есть свои резоны желать, чтобы Джим Террье исчез из его жизни. Это Энни — женщина, которую они оба любят. За Джимом начинается смертельная охота по всей Европе, и у него не остается другого выбора, кроме как дать бой — один против всех.


    Снималось в: США, Испания, Великобритания, Франция/StudioCanal, Anton Capital Entertainment (ACE), Silver Pictures
    Время просмотра: 01: 55: 35
    Тип перевода: Дублированное звук с TS
    Файл
    Тип видео: MKV
    Качество фильма: WEB-DL 720p
    Информация о видео: 3883 kb/s, 1280x532
    Информация о звуке: Russian: AC3, 384 Kb/s (2 ch)/English: AC3, 384 Kb/s (6 ch)
    Субтитры: English
    Семпл
    MI

    Format : Matroska
    Format version : Version 4/Version 2
    File size : 3.83 GiB
    Duration : 1h 55mn
    Overall bit rate : 4 745 Kbps
    Encoded date : UTC 2015-06-18 22: 21: 13
    Writing application : mkvmerge v6.1.0 (;Old Devil;) built on Mar 4 2013 09: 10: 42
    Writing library : libebml v1.3.0 + libmatroska v1.4.0
    Video
    ID : 1
    Format : AVC
    Format/Info : Advanced Video Codec
    Format profile : Main@L3.1
    Format settings, CABAC : No
    Format settings, ReFrames : 2 frames
    Codec ID : V_MPEG4/ISO/AVC
    Duration : 1h 55mn
    Bit rate : 3 883 Kbps
    Width : 1 280 pixels
    Height : 532 pixels
    Display aspect ratio : 2.40: 1
    Frame rate : 23.976 fps
    Color space : YUV
    Chroma subsampling : 4: 2: 0
    Bit depth : 8 bits
    Scan type : Progressive
    Bits/(Pixel*Frame) : 0.238
    Stream size : 3.13 GiB (82%)
    Language : English
    Default : Yes
    Forced : No
    Color primaries : BT.709-5, BT.1361, IEC 61966-2-4, SMPTE RP177
    Transfer characteristics : BT.709-5, BT.1361
    Matrix coefficients : BT.709-5, BT.1361, IEC 61966-2-4 709, SMPTE RP177
    Audio #1
    ID : 2
    Format : AC-3
    Format/Info : Audio Coding 3
    Mode extension : CM (complete main)
    Format settings, Endianness : Big
    Codec ID : A_AC3
    Duration : 1h 55mn
    Bit rate mode : Constant
    Bit rate : 384 Kbps
    Channel(s) : 2 channels
    Channel positions : Front: L R
    Sampling rate : 48.0 KHz
    Bit depth : 16 bits
    Compression mode : Lossy
    Stream size : 317 MiB (8%)
    Language : Russian
    Default : Yes
    Forced : No
    Audio #2
    ID : 3
    Format : AC-3
    Format/Info : Audio Coding 3
    Mode extension : CM (complete main)
    Format settings, Endianness : Big
    Codec ID : A_AC3
    Duration : 1h 55mn
    Bit rate mode : Constant
    Bit rate : 384 Kbps
    Channel(s) : 6 channels
    Channel positions : Front: L C R, Side: L R, LFE
    Sampling rate : 48.0 KHz
    Bit depth : 16 bits
    Compression mode : Lossy
    Stream size : 317 MiB (8%)
    Language : English
    Default : No
    Forced : No
    Text
    ID : 4
    Format : UTF-8
    Codec ID : S_TEXT/UTF8
    Codec ID/Info : UTF-8 Plain Text
    Language : English
    Default : No
    Forced : No
    Menu
    00: 00: 00.000 : en: 1
    00: 04: 50.000 : en: 2
    00: 10: 31.000 : en: 3
    00: 14: 22.000 : en: 4
    00: 18: 03.000 : en: 5
    00: 23: 19.000 : en: 6
    00: 27: 55.000 : en: 7
    00: 34: 16.000 : en: 8
    00: 39: 53.000 : en: 9
    00: 45: 53.000 : en: 10
    00: 50: 21.000 : en: 11
    00: 58: 12.000 : en: 12
    01: 04: 39.000 : en: 13
    01: 08: 29.000 : en: 14
    01: 14: 46.000 : en: 15
    01: 21: 39.000 : en: 16
    01: 31: 20.000 : en: 17
    01: 38: 41.000 : en: 18
    01: 45: 36.000 : en: 19
    01: 49: 17.000 : en: 20
    Скриншоты





    Онлайн видео Ганмен


    Размер скачиваемого торрента: 3.83 GB (4113683029 Bytes)

    Ганмен/The Gunman (2015) WEB-DL 720p | Звук с TS
    загрузка...
    Рейтинг →
     (голосов: 1, оценка 4/5, голосовать можно 1 раз )

    Другие торренты по теме:

  • Ганмен (2015) HDRip скачать торрент бесплатно
  • Ганмен / The Gunman (2015) WEB-DLRip | Звук с TS скачать торрент бесплатно
  • Ганмен / The Gunman (2015) WEB-DLRip | Звук с TS скачать торрент бесплатно
  • Ганмен / The Gunman (2015) HDRip | Есарев скачать торрент бесплатно
  • Ганмен / The Gunman (2015) HDRip | Есарев скачать торрент бесплатно
  • Ганмен / The Gunman (2015) BDRip 720p | Есарев скачать торрент бесплатно
  • Ганмен / The Gunman (2015) HDRip-AVC от ExKinoRay | Есарев скачать торрент бесплатно
  • Ганмен / The Gunman (2015) HDRip от torrentfilm | Есарев скачать торрент бесплатно


    • Комментарии (0):

      Информация

      Информация

        Посетители, находящиеся в группе Гости, не могут оставлять комментарии в данной новости.

        ↓ Меню



        ↓ Опрос

        А Вы добавили сайт в закладки?
        Да
        Не


        Top 10 за неделю (Фильмы)