.
Авторизация | Регистрация
» » Первая сила / The First Power (1990) BDRip | Гаврилов скачать торрент бесплатно




    Первая сила / The First Power (1990) BDRip | Гаврилов скачать торрент бесплатно

    Опубликовал: Админ | Дата: 20-06-2015, 05:05 | Просмотров: 122




    Русское название: Первая сила
    Русское название в мировом прокате: The First Power (Pentagram)
    Создали в: 1990
    Категория жанра: Триллер, ужасы
    Снималось в: США, Interscope Communications, Nelson Entertainment
    Время просмотра: 01: 38: 34
    Перевод текста: Авторский (одноголосый, закадровый) А.Гаврилов
    Субтитры: отсутствуют
    Главный режиссер: Роберт Резникофф

    Актеры
    Лу Даймонд Филлипс, Трэйси Гриффит, Джефф Кобер, Майкелти Уильямсон, Элизабет Арлен, Деннис Липском, Кармен Ардженциано, Джулианна МакКарти, Нада Деспотович, Клэйтон Ланди, Хансфорд Роу, Филип Эбботт, Дэвид Гэйл, Дж. Патрик МакНамара, Лиза Спечт, Марк Бринглсон, Уильям Фэйр, Брайан Либби, Майкл МакНаб

    Сюжет фильма
    После долгой охоты, детектив Расселл Логан, наконец-то, арестовывает зверского ритуального убийцу и наблюдает за его казнью в Сан Квентине. Однако, когда ритуальные убийства начинают происходить снова, у Логана появляются видения и он обращается за помощью к экстрасенсу. Вместе они обнаруживают, что ритуальный убийца — это один из учеников Сатаны, обладающий ужасной силой перевоплощения в тела других людей. Теперь Логан должен приступить к поискам убийцы снова, не зная где он, и что более ужасно, в кого он перевоплотился на этот раз...

    Качество фильма: BDRip
    Информация о видео: MPEG4, XviD, 720x400 (16: 9), 23.976 fps, 1 848 Kbps (0.268 bit/pixel)
    Информация о звуке: AC-3, 48.0 KHz, 2 ch, 256 Kbps, CBR
    Релиз подготовил: FAGOT100
    MediaInfo:
    Формат : AVI
    Формат/Информация : Audio Video Interleave
    Размер файла : 1, 46 Гбайт
    Продолжительность : 1 ч. 38 м.
    Общий поток : 2114 Кбит/сек
    Программа кодирования : VirtualDubMod 1.5.10.3 | www.virtualdub-fr.org || (build 2550/release)
    Библиотека кодирования : VirtualDubMod build 2550/release
    Видео
    Идентификатор : 0
    Формат : MPEG-4 Visual
    Профиль формата : Advanced Simple@L5
    Параметр BVOP формата : 2
    Параметр QPel формата : Нет
    Параметр GMC формата : Без точки перехода
    Параметр матрицы формата : Выборочная
    Идентификатор кодека : XVID
    Идентификатор кодека/Подсказка : XviD
    Продолжительность : 1 ч. 38 м.
    Битрейт : 1848 Кбит/сек
    Ширина : 720 пикселей
    Высота : 400 пикселей
    Соотношение сторон : 16: 9
    Частота кадров : 23, 976 кадра/сек
    Цветовое пространство : YUV
    Субдискретизация насыщенности : 4: 2: 0
    Битовая глубина : 8 бит
    Тип развёртки : Прогрессивная
    Метод сжатия : С потерями
    Бит/(Пиксели*Кадры) : 0.268
    Размер потока : 1, 27 Гбайт (87%)
    Библиотека кодирования : XviD 73
    Аудио
    Идентификатор : 1
    Формат : AC-3
    Формат/Информация : Audio Coding 3
    Расширение режима : CM (complete main)
    Параметр Endianness формата : Big
    Идентификатор кодека : 2000
    Продолжительность : 1 ч. 38 м.
    Вид битрейта : Постоянный
    Битрейт : 256 Кбит/сек
    Каналы : 2 канала
    Расположение каналов : Front: L R
    Частота : 48, 0 КГц
    Битовая глубина : 16 бит
    Метод сжатия : С потерями
    Размер потока : 180 Мбайт (12%)
    Выравнивание : Разделение по промежуткам
    Продолжительность промежутка : 42 мс. (1, 00 видеокадр)
    Время предзагрузки промежутка : 500 мс.
    Скриншоты



    Онлайн видео Первая сила


    Размер скачиваемого торрента: 1.46 GB (1562701824 Bytes)

    Первая сила/The First Power (1990) BDRip | Гаврилов
    загрузка...
    Рейтинг →
     (голосов: 1, оценка 5/5, голосовать можно 1 раз )

    Другие торренты по теме:



      Комментарии (0):

      Информация

      Информация

        Посетители, находящиеся в группе Гости, не могут оставлять комментарии в данной новости.

        ↓ Меню



        ↓ Опрос

        А Вы добавили сайт в закладки?
        Да
        Не


        Top 10 за неделю (Фильмы)