.
Авторизация | Регистрация
» » Французский транзит / La French (2014) BDRip 720p | D скачать торрент бесплатно




    Французский транзит / La French (2014) BDRip 720p | D скачать торрент бесплатно

    Опубликовал: Админ | Дата: 20-06-2015, 05:05 | Просмотров: 121



    Детально о кино
    Русское название: Французский транзит
    Русское название в мировом прокате: La French
    Создали в: 2014
    Категория жанра: Боевик, триллер, криминал
    Снималось в: Франция, Бельгия, Gaumont, Legende Films, France 2 Cin?ma
    Главный режиссер: Седрик Хименес

    Актеры
    Жан Дюжарден, Жиль Леллуш, Селин Саллетт, Мелани Дотей, Бенуа Мажимель, Гийом Гуи, Бруно Тодескини, Федор Аткин, Мусса Мааскри, Пьер Лопез

    Сюжет фильма
    Реальная история преступного синдиката Французский связной, свирепствующего в 70-х годах. Подпольная организация была особенно известна международным трафиком героина. Марсель. 1975 год. Молодой Пьер Мишель вместе с женой и детьми переезжает из Меца и назначается судьёй по особо тяжким преступлениям. Он решает разобраться с мафиозной сетью, два десятилетия снабжающей улицы США и всего мира героином под руководством знаковой фигуры криминальной сферы и неприкосновенного крёстного отца безжалостного Гаэтана Зампы. Но он быстро понимает, что для получения результатов ему придётся поменять свои методы.
    Файл
    Качество фильма: BDRip (720p)
    Информация о видео: MPEG-4 AVC, 8500 Кбит/с, 1280x534
    Информация о звуке: Русский (AC3, 6 ch, 448 Кбит/с), украинский (AC3, 2 ch, 192 Кбит/с), французский (AC3, 6 ch, 640 Кбит/с)
    Размер скачиваемого торрента: 9.24 ГБ
    Время просмотра: 02: 15: 36
    Перевод текста: Дублированный IPTV snx.BLUEBIRD
    Семпл
    MI
    Общее
    Уникальный идентификатор : 246547857093033908974136225110687550950 (0xB97B63DBA09C1E2FA7D7470CFAFD0DE6)
    Полное имя : C: La.French.2014.720p.BluRay.x264-WiKiLa.French.2014.720p.BluRay.x264-WiKi.mkv
    Формат : Matroska
    Версия формата : Version 2
    Размер файла : 9, 24 Гбайт
    Продолжительность : 2 ч. 15 м.
    Общий поток : 9777 Кбит/сек
    Дата кодирования : UTC 2015-06-19 06: 42: 45
    Программа кодирования : mkvmerge v7.9.0 (;Birds;) 64bit
    Библиотека кодирования : libebml v1.3.1 + libmatroska v1.4.2
    DURATION : 02: 15: 18.720000000
    NUMBER_OF_FRAMES : 253710
    NUMBER_OF_BYTES : 649497600
    _STATISTICS_WRITING_APP : mkvmerge v7.0.0 (;Where We Going;) 32bit built on Jun 9 2014 15: 08: 34
    _STATISTICS_WRITING_DATE_UTC : 2015-04-18 00: 16: 28
    _STATISTICS_TAGS : BPS DURATION NUMBER_OF_FRAMES NUMBER_OF_BYTES
    Видео
    Идентификатор : 1
    Формат : AVC
    Формат/Информация : Advanced Video Codec
    Профиль формата : High@L4.1
    Параметр CABAC формата : Да
    Параметр ReFrames формата : 12 кадров
    Идентификатор кодека : V_MPEG4/ISO/AVC
    Продолжительность : 2 ч. 15 м.
    Битрейт : 8500 Кбит/сек
    Ширина : 1280 пикселей
    Высота : 534 пикселя
    Соотношение сторон : 2, 40: 1
    Режим частоты кадров : Постоянный
    Частота кадров : 24, 000 кадра/сек
    Цветовое пространство : YUV
    Субдискретизация насыщенности : 4: 2: 0
    Битовая глубина : 8 бит
    Тип развёртки : Прогрессивная
    Бит/(Пиксели*Кадры) : 0.518
    Размер потока : 7, 85 Гбайт (85%)
    Библиотека кодирования : x264 core 142 r2479 dd79a61
    Настройки программы : cabac=1/ref=12/deblock=1: -3: -3/analyse=0x3: 0x133/me=umh/subme=11/psy=1/psy_rd=1.10: 0.10/mixed_ref=1/me_range=32/chroma_me=1/trellis=2/8x8dct=1/cqm=0/deadzone=21, 11/fast_pskip=0/chroma_qp_offset=-3/threads=12/lookahead_threads=2/sliced_threads=0/nr=0/decimate=0/interlaced=0/bluray_compat=0/constrained_intra=0/bframes=8/b_pyramid=2/b_adapt=2/b_bias=0/direct=3/weightb=1/open_gop=0/weightp=2/keyint=250/keyint_min=24/scenecut=40/intra_refresh=0/rc_lookahead=80/rc=2pass/mbtree=1/bitrate=8500/ratetol=1.0/qcomp=0.75/qpmin=0/qpmax=69/qpstep=4/cplxblur=20.0/qblur=0.5/ip_ratio=1.40/aq=1: 0.70
    Язык : English
    Default : Да
    Forced : Нет
    DURATION : 02: 15: 18.709000000
    NUMBER_OF_FRAMES : 194849
    NUMBER_OF_BYTES : 8620932121
    _STATISTICS_WRITING_APP : mkvmerge v7.0.0 (;Where We Going;) 32bit built on Jun 9 2014 15: 08: 34
    _STATISTICS_WRITING_DATE_UTC : 2015-04-18 00: 16: 28
    _STATISTICS_TAGS : BPS DURATION NUMBER_OF_FRAMES NUMBER_OF_BYTES
    Аудио #1
    Идентификатор : 2
    Формат : AC-3
    Формат/Информация : Audio Coding 3
    Расширение режима : CM (complete main)
    Параметр Endianness формата : Big
    Идентификатор кодека : A_AC3
    Продолжительность : 2 ч. 15 м.
    Вид битрейта : Постоянный
    Битрейт : 448 Кбит/сек
    Каналы : 6 каналов
    Расположение каналов : Front: L C R, Side: L R, LFE
    Частота : 48, 0 КГц
    Метод сжатия : С потерями
    Размер потока : 434 Мбайт (5%)
    Заголовок : IPTV
    Язык : Russian
    Default : Да
    Forced : Нет
    Аудио #2
    Идентификатор : 3
    Формат : AC-3
    Формат/Информация : Audio Coding 3
    Профиль формата : Dolby Digital
    Расширение режима : CM (complete main)
    Параметр Endianness формата : Big
    Идентификатор кодека : A_AC3
    Продолжительность : 2 ч. 15 м.
    Вид битрейта : Постоянный
    Битрейт : 192 Кбит/сек
    Каналы : 2 канала
    Расположение каналов : Front: L R
    Частота : 48, 0 КГц
    Метод сжатия : С потерями
    Размер потока : 186 Мбайт (2%)
    Язык : Ukrainian
    Default : Нет
    Forced : Нет
    Аудио #3
    Идентификатор : 4
    Формат : AC-3
    Формат/Информация : Audio Coding 3
    Расширение режима : CM (complete main)
    Параметр Endianness формата : Big
    Идентификатор кодека : A_AC3
    Продолжительность : 2 ч. 15 м.
    Вид битрейта : Постоянный
    Битрейт : 640 Кбит/сек
    Каналы : 6 каналов
    Расположение каналов : Front: L C R, Side: L R, LFE
    Частота : 48, 0 КГц
    Метод сжатия : С потерями
    Размер потока : 619 Мбайт (7%)
    Заголовок : french
    Язык : French
    Default : Нет
    Forced : Нет
    Меню
    00: 00: 00.000 : en: 00: 00: 00.000
    00: 11: 01.458 : en: 00: 11: 01.458
    00: 21: 07.167 : en: 00: 21: 07.167
    00: 32: 10.417 : en: 00: 32: 10.417
    00: 43: 32.417 : en: 00: 43: 32.417
    00: 56: 18.875 : en: 00: 56: 18.875
    01: 06: 47.042 : en: 01: 06: 47.042
    01: 15: 40.000 : en: 01: 15: 40.000
    01: 28: 48.708 : en: 01: 28: 48.708
    01: 40: 26.500 : en: 01: 40: 26.500
    01: 55: 01.167 : en: 01: 55: 01.167
    02: 03: 22.625 : en: 02: 03: 22.625

    Скриншоты




    Онлайн видео Французский транзит


    Размер скачиваемого торрента: 9.24 GB (9922443858 Bytes)

    Французский транзит/La French (2014) BDRip 720p | D
    загрузка...
    Рейтинг →
     (голосов: 1, оценка 3/5, голосовать можно 1 раз )

    Другие торренты по теме:

  • Французский транзит (2014) HDRip скачать торрент бесплатно
  • Французский транзит / La French (2014) HDRip | Звук с TS скачать торрент бесплатно
  • Французский транзит / La French (2014) HDRip | Звук с TS скачать торрент бесплатно
  • Французский транзит / La French (2014) HDRip | Чистый звук скачать торрент бесплатно
  • Французский транзит / La French (2014) HDRip | Чистый звук скачать торрент бесплатно
  • Французский транзит / La French (2014) HDRip-AVC от ExKinoRay | Чистый звук скачать торрент бесплатно
  • Французский транзит / La French (2014) HDRip от Scarabey | Чистый звук скачать торрент бесплатно
  • Французский транзит / La French (2014) HDRip от Scarabey | Чистый звук скачать торрент бесплатно


    • Комментарии (0):

      Информация

      Информация

        Посетители, находящиеся в группе Гости, не могут оставлять комментарии в данной новости.

        ↓ Меню



        ↓ Опрос

        А Вы добавили сайт в закладки?
        Да
        Не


        Top 10 за неделю (Фильмы)

        Мой парень – киллер / Mr. Right (2015) WEB-DL 1080p | L скачать торрент бесплатно

        (просмотров: 331)
        Ёлки 5 (2016) WEB-DLRip скачать торрент бесплатно

        (просмотров: 331)
        Разрушение / Demolition (2015) BDRemux 1080p от ExKinoRay | L скачать торрент бесплатно

        (просмотров: 301)
        Экипаж (2016) BDRip от New-Team | D | Лицензия скачать торрент бесплатно
        АНОНСЫ МОИХ РАЗДАЧ
        (просмотров: 301)
        Экипаж (2016) BDRip от New-Team | D | Лицензия скачать торрент бесплатно
        АНОНСЫ МОИХ РАЗДАЧ
        (просмотров: 271)
        Гений / Genius (2016) WEB-DLRip 1080p | Звук TS скачать торрент бесплатно

        (просмотров: 161)
        Кухня (1-5 сезоны: 1-100 серии из 100 + 2 бонуса) / 2012-2015 / РУ / DVDRip, WEB-DLRip скачать торрент бесплатно

        (просмотров: 151)
        Кухня (2015) SATRip скачать торрент бесплатно
        Кухня ? Кухня (2015) SATRip скачать торрент бесплатно
        (просмотров: 141)
        Дуэлянт (2016) WEB-DLRip от Scarabey | iTunes скачать торрент бесплатно

        (просмотров: 131)
        Демон внутри / Вскрытие Джейн Доу / The Autopsy of Jane Doe (2016) WEB-DLRip от Scarabey | P скачать торрент бесплатно
        Мы В КОНТАКТЕ =)
        (просмотров: 111)