.
Авторизация | Регистрация
» » Гангстер / American Gangster (2007) BDRip 720p от HQ-ViDEO | Расширенная версия | P скачать торрент бесплатно




    Гангстер / American Gangster (2007) BDRip 720p от HQ-ViDEO | Расширенная версия | P скачать торрент бесплатно

    Опубликовал: Админ | Дата: 20-06-2015, 05:07 | Просмотров: 94


    Гангстер Расширенная версия/American Gangster Unrated (2007) BDRip 720p
    Релиз от HQ-ViDEO

    Детально о кино
    Русское название: Гангстер Расширенная версия
    Русское название в мировом прокате: American Gangster Unrated
    Создали в: 2007
    Категория жанра: драма, криминал, биография
    Главный режиссер: Ридли Скотт /Ridley Scott/

    Актеры
    Дензел Вашингтон /Denzel Washington/, Рассел Кроу /Russell Crowe/ , Чиветель Эджиофор /Chiwetel Ejiofor/, Джош Бролин /Josh Brolin/, Лимари Надаль /Lymari Nadal/, Тед Ливайн /Ted Levine/, Роджер Женвер Смит /Roger Guenveur Smith/, Джон Хоукс /John Hawkes/, РЗА /RZA/, Юл Васкез /Yul Vazquez/, Карла Гуджино /Carla Gugino/, Кьюба Гудинг мл. /Cuba Gooding Jr./ ...

    Сюжет фильма

    После смерти хозяина, Фрэнк Лукас, тихий водитель гарлемского преступного авторитета, решает создать собственную криминальную империю. Его специальность — героин, который он ввозит напрямую из Юго-Восточной Азии. Лукас считает себя бизнесменом и конкурирует с другими группировками по всем правилам рыночной экономики, предлагая более качественный продукт по более низкой цене. Зарабатывая миллион долларов в день и придерживаясь однажды установленных для себя правил игры, он становится идолом для всего Гарлема, но по следам Фрэнка уже идёт Ричи Робертс — редкий для Нью-Йорка образец честного полицейского, ненавидимого коллегами.

    Награды и номинации:

    Оскар, 2008 год
    Номинации (2):
    - Лучшая женская роль второго плана (Руби Ди)
    - Лучшие декорации
    Золотой глобус, 2008 год
    Номинации (3):
    - Лучший фильм (драма)
    - Лучшая мужская роль (драма) (Дензел Вашингтон)
    - Лучший режиссер (Ридли Скотт)
    Премия канала MTV, 2008 год
    Номинации (2):
    - Лучшая мужская роль (Дензел Вашингтон)
    - Лучший злодей (Дензел Вашингтон)
    Британская академия, 2008 год
    Номинации (5):
    - Лучший фильм
    - Лучший оригинальный сценарий
    - Лучшая работа оператора
    - Лучший монтаж
    - Лучший саундтрек
    Премия Гильдии актеров, 2008 год
    Победитель (1):
    - Лучшая женская роль второго плана (Руби Ди)
    Номинации (1):
    - Лучший актерский состав

    Снималось в: США, Великобритания
    Время просмотра: 02: 55: 45
    Перевод текста: Русский профессиональный, многоголосый перевод +Русский дублированный (со вставками многоголоски на расширенные места) (отдельно) + Оригинальная, английская дорожка (отдельно)
    Файл
    Кодек для видео: MKV, H.264
    Качество фильма: BDRip 720p (Source: Blu-ray Disc)
    Информация о видео: 4748 kbps; 0.224 bit/pixel; 1280 x 692; 1.85: 1; 23.976 fps
    Информация о звуке #1: AC3 Dolby Digital; 448.00 kbps, 6 Ch - MVO
    Информация о звуке #2: AC3 Dolby Digital; 448.00 kbps, 6 Ch - DUB+MVO (отдельно/скачать с Яндекс Диск)
    Информация о звуке #3: AC3 Dolby Digital; 448.00 kbps, 6 Ch - ENG (отдельно/скачать с Яндекс Диск)
    Субтитры: Русские, Английские.
    Субтитры: Русские (полные, форсированные), Английские.(отдельно)
    Размер скачиваемого торрента: 6.51 GB
    SAMPLE/скачать с Яндекс Диск
    MediaInfo

    General
    Complete name : Gangster.2007.RUS.BDRip.720p.h264.AC3.-HQ-ViDEO.mkv
    Format : Matroska
    File size : 6.51 GiB
    Duration : 2h 55mn
    Overall bit rate : 5 302 Kbps
    Movie name : American Gangster (2007)
    Encoded date : UTC 2011-02-04 09: 54: 45
    Writing application : mkvmerge v3.3.0 (;Language;) built on Mar 24 2010 14: 59: 24
    Writing library : libebml v0.8.0 + libmatroska v0.9.0
    Video
    ID : 1
    Format : AVC
    Format/Info : Advanced Video Codec
    Format profile : High@L4.1
    Format settings, CABAC : Yes
    Format settings, ReFrames : 6 frames
    Codec ID : V_MPEG4/ISO/AVC
    Duration : 2h 55mn
    Bit rate mode : Variable
    Bit rate : 4 748 Kbps
    Width : 1 280 pixels
    Height : 692 pixels
    Display aspect ratio : 1.850
    Frame rate : 23.976 fps
    Color space : YUV
    Chroma subsampling : 4: 2: 0
    Bit depth : 8 bits
    Scan type : Progressive
    Bits/(Pixel*Frame) : 0.224
    Stream size : 5.83 GiB (90%)
    Title : Encoded by GYN
    Audio
    ID : 2
    Format : AC-3
    Format/Info : Audio Coding 3
    Mode extension : CM (complete main)
    Codec ID : A_AC3
    Duration : 2h 55mn
    Bit rate mode : Constant
    Bit rate : 448 Kbps
    Channel(s) : 6 channels
    Channel positions : Front: L C R, Side: L R, LFE
    Sampling rate : 48.0 KHz
    Bit depth : 16 bits
    Stream size : 563 MiB (8%)
    Title : MVO
    Language : Russian
    Text #1
    ID : 3
    Format : UTF-8
    Codec ID : S_TEXT/UTF8
    Codec ID/Info : UTF-8 Plain Text
    Language : Russian
    Text #2
    ID : 4
    Format : UTF-8
    Codec ID : S_TEXT/UTF8
    Codec ID/Info : UTF-8 Plain Text
    Language : English





    Релиз подготовил: HQ-ViDEO
    Автор рипа: GYN

    Онлайн видео Гангстер


    Размер скачиваемого торрента: 6.51 GB (6988230203 Bytes)

    Гангстер/American Gangster (2007) BDRip 720p от HQ-ViDEO | Расширенная версия | P
    загрузка...
    Рейтинг →
     (голосов: 1, оценка 3/5, голосовать можно 1 раз )

    Другие торренты по теме:



      Комментарии (0):

      Информация

      Информация

        Посетители, находящиеся в группе Гости, не могут оставлять комментарии в данной новости.

        ↓ Меню



        ↓ Опрос

        А Вы добавили сайт в закладки?
        Да
        Не


        Top 10 за неделю (Фильмы)