.
Авторизация | Регистрация
» » Незнакомец / The Stranger (2014) WEB-DL 720p | L1 скачать торрент бесплатно




    Незнакомец / The Stranger (2014) WEB-DL 720p | L1 скачать торрент бесплатно

    Опубликовал: Админ | Дата: 20-06-2015, 05:09 | Просмотров: 76



    Детально о кино
    Русское название: Незнакомец
    Русское название в мировом прокате: The Stranger
    Создали в: 2014
    Категория жанра: ужасы, триллер, драма, детектив
    Главный режиссер: Гильермо Амоедо

    Актеры
    Лоренца Иззо, Аарон Барнс, Кристобаль Тапия Монтт, Ариэль Леви, Луис Гнекко, Николас Дюран, Алессанда Гуэрдзони, Джон Аллан, Пабло Вилья

    Сюжет фильма
    Таинственный человек приезжает в маленький городок, чтобы искоренить очень опасную болезнь…


    Снималось в: Чили/Sobras International Pictures
    Время просмотра: 01: 32: 45
    Тип перевода: Любительское (одноголосое) datynet, перевод Janetta
    Файл
    Тип видео: MKV
    Качество фильма: WEB-DL 720p
    Информация о видео: 3962 kb/s, 1280x532
    Информация о звуке: Russian/English: AC3, 384 kb/s (6 ch)
    Субтитры: English


    MI

    Format : Matroska
    Format version : Version 4/Version 2
    File size : 3.13 GiB
    Duration : 1h 32mn
    Overall bit rate : 4 826 Kbps
    Encoded date : UTC 2015-06-19 16: 10: 29
    Writing application : mkvmerge v6.1.0 (;Old Devil;) built on Mar 4 2013 09: 10: 42
    Writing library : libebml v1.3.0 + libmatroska v1.4.0
    Video
    ID : 1
    Format : AVC
    Format/Info : Advanced Video Codec
    Format profile : Main@L3.1
    Format settings, CABAC : No
    Format settings, ReFrames : 2 frames
    Codec ID : V_MPEG4/ISO/AVC
    Duration : 1h 32mn
    Bit rate : 3 962 Kbps
    Width : 1 280 pixels
    Height : 532 pixels
    Display aspect ratio : 2.40: 1
    Frame rate : 23.976 fps
    Color space : YUV
    Chroma subsampling : 4: 2: 0
    Bit depth : 8 bits
    Scan type : Progressive
    Bits/(Pixel*Frame) : 0.243
    Stream size : 2.57 GiB (82%)
    Language : English
    Default : Yes
    Forced : No
    Color primaries : BT.709-5, BT.1361, IEC 61966-2-4, SMPTE RP177
    Transfer characteristics : BT.709-5, BT.1361
    Matrix coefficients : BT.709-5, BT.1361, IEC 61966-2-4 709, SMPTE RP177
    Audio #1
    ID : 2
    Format : AC-3
    Format/Info : Audio Coding 3
    Mode extension : CM (complete main)
    Format settings, Endianness : Big
    Codec ID : A_AC3
    Duration : 1h 32mn
    Bit rate mode : Constant
    Bit rate : 384 Kbps
    Channel(s) : 6 channels
    Channel positions : Front: L C R, Side: L R, LFE
    Sampling rate : 48.0 KHz
    Bit depth : 16 bits
    Compression mode : Lossy
    Stream size : 255 MiB (8%)
    Language : Russian
    Default : Yes
    Forced : No
    Audio #2
    ID : 3
    Format : AC-3
    Format/Info : Audio Coding 3
    Mode extension : CM (complete main)
    Format settings, Endianness : Big
    Codec ID : A_AC3
    Duration : 1h 32mn
    Bit rate mode : Constant
    Bit rate : 384 Kbps
    Channel(s) : 6 channels
    Channel positions : Front: L C R, Side: L R, LFE
    Sampling rate : 48.0 KHz
    Bit depth : 16 bits
    Compression mode : Lossy
    Stream size : 255 MiB (8%)
    Language : English
    Default : No
    Forced : No
    Text
    ID : 4
    Format : UTF-8
    Codec ID : S_TEXT/UTF8
    Codec ID/Info : UTF-8 Plain Text
    Language : English
    Default : No
    Forced : No
    Menu
    00: 00: 00.000 : en: 1
    00: 01: 32.000 : en: 2
    00: 13: 11.000 : en: 3
    00: 20: 48.000 : en: 4
    00: 28: 15.000 : en: 5
    00: 41: 26.000 : en: 6
    00: 53: 54.000 : en: 7
    01: 05: 09.000 : en: 8
    01: 15: 23.000 : en: 9
    01: 28: 39.000 : en: 10
    Скриншоты


    Онлайн видео Незнакомец


    Размер скачиваемого торрента: 3.13 GB (3356811665 Bytes)

    Незнакомец/The Stranger (2014) WEB-DL 720p | L1
    загрузка...
    Рейтинг →
     (голосов: 1, оценка 5/5, голосовать можно 1 раз )

    Другие торренты по теме:

  • Идеальный незнакомец / Perfect Stranger (2007) BDRip 1080p торрент скачать бесплатно
  • Незнакомец и незнакомка / Anjaana Anjaani (2010) DVDRip | Лицензия торрент скачать бесплатно
  • OST - Когда звонит незнакомец / When A Stranger Calls (2006) MP3 торрент скачать бесплатно
  • Незнакомец внутри / The Stranger Within (2013) DVDRip от Youtracker | P | лицензия торрент скачать бесплатно
  • Незнакомец внутри / The Stranger Within (2013) DVDRip от Youtracker | D | лицензия торрент скачать бесплатно
  • Незнакомец внутри / The Stranger Within (2013) DVDRip-AVC от Youtracker | P | лицензия торрент скачать бесплатно
  • Незнакомец внутри / The Stranger Within (2013) DVD9 R5 от Youtracker | P | лицензия торрент скачать бесплатно
  • Незнакомец внутри / The Stranger Within (2013) DVD5 от Youtracker | P | сжатый торрент скачать бесплатно


    • Комментарии (0):

      Информация

      Информация

        Посетители, находящиеся в группе Гости, не могут оставлять комментарии в данной новости.

        ↓ Меню



        ↓ Опрос

        А Вы добавили сайт в закладки?
        Да
        Не


        Top 10 за неделю (Фильмы)