.
Авторизация | Регистрация
» » Загон для собак / Собачий загон / Dog Pound (2010) BDRip-AVC от MediaClub | L1 скачать торрент бесплатно




    Загон для собак / Собачий загон / Dog Pound (2010) BDRip-AVC от MediaClub | L1 скачать торрент бесплатно

    Опубликовал: Админ | Дата: 20-06-2015, 05:10 | Просмотров: 108



    Детально о кино
    Создали в: 2010
    Категория жанра: драма, криминал
    Главный режиссёр: Ким Шапирон /Kim Chapiron/

    Актеры
    Адам Батчер /Adam Butcher/, Шэйн Киппел /Shane Kippel/, Матео Моралес /Mateo Morales/, Слим Твиг /Slim Twig/, Тейлор Пулин /Taylor Poulin/, Дьюшэйн Уильямс /Dewshane Williams/, Лоуренс Бэйн /Lawrence Bayne/, Трент МакКаллен /Trent McMullen/
    Описание:
    Трое молодых парней попадают в исправительную колонию для подростков. Попав в нее, каждый должен выбрать одну из двух сторон, быть сильным и непримиримым, либо стать жертвой издевательств и унижений…

    Снималось в: США
    Время просмотра: 01: 30: 54
    Перевод текста №1: одноголосный закадровый (Vova Mnemic)
    Перевод текста №2: одноголосный закадровый (zamez)
    Субтитры подготовлены: русские, английские
    Оригинальная аудиодорожка: английская
    Оглавление: 12 глав
    Файл
    Качество фильма: BDRip (by MrDelRey@DON)
    Контейнер: MKV
    Информация о видеопоток: 1280x694p, 23.976 fps, x264 ~11424 kbps
    Информация о звукепоток №1 (RUS): DD 5.1, 48 kHz, 640 kbps | одноголосный закадровый (Vova Mnemic)
    Информация о звукепоток №2 (RUS): DD 5.1, 48 kHz, 448 kbps | одноголосный закадровый (zamez)
    Информация о звукепоток №3 (ENG): DD 5.1, 48 kHz, 640 kbps
    Субтитры №1 (RUS): SRT/UTF8
    Субтитры №2 (ENG): SRT/UTF8

    MediaInfo
    General
    Unique ID : 223006295498204512852006358691544910810 (0xA7C573422FEA4E9283DCCECBF3954BDA)
    Complete name : Dog.Pound.2010.720p.BDRip.x264.DD.SRT-DON.mkv
    Format : Matroska
    Format version : Version 4/Version 2
    File size : 8.35 GiB
    Duration : 1h 30mn
    Overall bit rate : 13.2 Mbps
    Movie name : Dog Pound (2010) 720p BDRip by DON
    Encoded date : UTC 2015-06-16 00: 43: 45
    Writing application : mkvmerge v7.8.0 (;River Man;) 64bit built on Mar 27 2015 16: 31: 37
    Writing library : libebml v1.3.1 + libmatroska v1.4.2
    DURATION : 01: 30: 54.080000000
    NUMBER_OF_FRAMES : 170440
    NUMBER_OF_BYTES : 305428480
    _STATISTICS_WRITING_APP : mkvmerge v7.8.0 (;River Man;) 64bit built on Mar 27 2015 16: 31: 37
    _STATISTICS_WRITING_DATE_UTC : 2015-06-16 00: 43: 45
    _STATISTICS_TAGS : BPS DURATION NUMBER_OF_FRAMES NUMBER_OF_BYTES
    Video
    ID : 1
    Format : AVC
    Format/Info : Advanced Video Codec
    Format profile : High@L4.1
    Format settings, CABAC : Yes
    Format settings, ReFrames : 9 frames
    Codec ID : V_MPEG4/ISO/AVC
    Duration : 1h 30mn
    Bit rate : 11.2 Mbps
    Width : 1 280 pixels
    Height : 694 pixels
    Display aspect ratio : 1.85: 1
    Frame rate mode : Constant
    Frame rate : 23.976 fps
    Color space : YUV
    Chroma subsampling : 4: 2: 0
    Bit depth : 8 bits
    Scan type : Progressive
    Bits/(Pixel*Frame) : 0.524
    Stream size : 7.09 GiB (85%)
    Title : 1280x694, 23.976 fps, x264 ~11424 kbps
    Writing library : x264 core 142 r2431+42 c69a006 tMod 8-bit@4: 2: 0 X86_64
    Encoding settings : cabac=1/ref=9/deblock=1: -3: -3/analyse=0x3: 0x133/me=umh/subme=11/psy=1/fade_compensate=0.00/psy_rd=1.00: 0.00/mixed_ref=1/me_range=32/chroma_me=1/trellis=2/8x8dct=1/cqm=0/deadzone=21, 11/fast_pskip=0/chroma_qp_offset=-2/threads=6/lookahead_threads=1/sliced_threads=0/nr=0/decimate=0/interlaced=0/bluray_compat=0/constrained_intra=0/fgo=0/bframes=10/b_pyramid=2/b_adapt=2/b_bias=0/direct=3/weightb=1/open_gop=0/weightp=2/keyint=250/keyint_min=23/scenecut=40/intra_refresh=0/rc_lookahead=60/rc=crf/mbtree=0/crf=17.5000/qcomp=0.70/qpmin=0: 0: 0/qpmax=69: 69: 69/qpstep=4/vbv_maxrate=62500/vbv_bufsize=78125/crf_max=0.0/nal_hrd=none/filler=0/ip_ratio=1.30/pb_ratio=1.20/aq=3: 0.80/aq-sensitivity=10.00/aq-factor=1.00: 1.00: 1.00/aq2=0/aq3=0
    Language : English
    Default : Yes
    Forced : No
    DURATION : 01: 30: 53.615000000
    NUMBER_OF_FRAMES : 130756
    NUMBER_OF_BYTES : 7788053076
    _STATISTICS_WRITING_APP : mkvmerge v7.8.0 (;River Man;) 64bit built on Mar 27 2015 16: 31: 37
    _STATISTICS_WRITING_DATE_UTC : 2015-06-16 00: 43: 45
    _STATISTICS_TAGS : BPS DURATION NUMBER_OF_FRAMES NUMBER_OF_BYTES
    Audio #1
    ID : 2
    Format : AC-3
    Format/Info : Audio Coding 3
    Mode extension : CM (complete main)
    Format settings, Endianness : Big
    Codec ID : A_AC3
    Duration : 1h 30mn
    Bit rate mode : Constant
    Bit rate : 640 Kbps
    Channel(s) : 6 channels
    Channel positions : Front: L C R, Side: L R, LFE
    Sampling rate : 48.0 KHz
    Bit depth : 16 bits
    Compression mode : Lossy
    Stream size : 416 MiB (5%)
    Title : RUS VO Vova Mnemic DD 5.1, 48 kHz, 640 kbps
    Language : Russian
    Default : Yes
    Forced : No
    Audio #2
    ID : 3
    Format : AC-3
    Format/Info : Audio Coding 3
    Mode extension : CM (complete main)
    Format settings, Endianness : Big
    Codec ID : A_AC3
    Duration : 1h 30mn
    Bit rate mode : Constant
    Bit rate : 448 Kbps
    Channel(s) : 6 channels
    Channel positions : Front: L C R, Side: L R, LFE
    Sampling rate : 48.0 KHz
    Bit depth : 16 bits
    Compression mode : Lossy
    Stream size : 291 MiB (3%)
    Title : RUS VO zamez DD 5.1, 48 kHz, 448 kbps
    Language : Russian
    Default : No
    Forced : No
    Audio #3
    ID : 4
    Format : AC-3
    Format/Info : Audio Coding 3
    Mode extension : CM (complete main)
    Format settings, Endianness : Big
    Codec ID : A_AC3
    Duration : 1h 30mn
    Bit rate mode : Constant
    Bit rate : 640 Kbps
    Channel(s) : 6 channels
    Channel positions : Front: L C R, Side: L R, LFE
    Sampling rate : 48.0 KHz
    Bit depth : 16 bits
    Compression mode : Lossy
    Stream size : 416 MiB (5%)
    Title : ENG DD 5.1, 48 kHz, 640 kbps
    Language : English
    Default : No
    Forced : No
    Text #1
    ID : 5
    Format : UTF-8
    Codec ID : S_TEXT/UTF8
    Codec ID/Info : UTF-8 Plain Text
    Title : RUS SRT
    Language : Russian
    Default : No
    Forced : No
    Text #2
    ID : 6
    Format : UTF-8
    Codec ID : S_TEXT/UTF8
    Codec ID/Info : UTF-8 Plain Text
    Title : ENG SRT
    Language : English
    Default : No
    Forced : No
    Menu
    00: 00: 00.000 : en: 00: 00: 00.000
    00: 06: 49.666 : en: 00: 06: 49.666
    00: 13: 04.958 : en: 00: 13: 04.958
    00: 20: 57.833 : en: 00: 20: 57.833
    00: 29: 10.541 : en: 00: 29: 10.541
    00: 38: 29.625 : en: 00: 38: 29.625
    00: 44: 51.000 : en: 00: 44: 51.000
    00: 54: 38.125 : en: 00: 54: 38.125
    01: 02: 01.208 : en: 01: 02: 01.208
    01: 11: 34.625 : en: 01: 11: 34.625
    01: 19: 55.582 : en: 01: 19: 55.582
    01: 26: 57.541 : en: 01: 26: 57.541
    x264 Log
    x264 info: frame I: 751 Avg QP: 14.36 size: 130547
    x264 info: frame P: 24946 Avg QP: 15.80 size: 90294
    x264 info: frame B: 105059 Avg QP: 16.96 size: 51757
    encoded 130756 frames, 3.388 fps, 11424.43 kb/s
    Скриншоты


    Онлайн видео Загон для собак


    Размер скачиваемого торрента: 8.35 GB (8968019039 Bytes)

    Загон для собак/Собачий загон/Dog Pound (2010) BDRip-AVC от MediaClub | L1
    загрузка...
    Рейтинг →
     (голосов: 1, оценка 3/5, голосовать можно 1 раз )

    Другие торренты по теме:

  • Загон для собак / Собачий загон / Dog Pound (2010) BDRip-AVC от MediaClub | L1 скачать через торрент бесплатно


    • Комментарии (0):

      Информация

      Информация

        Посетители, находящиеся в группе Гости, не могут оставлять комментарии в данной новости.

        ↓ Меню



        ↓ Опрос

        А Вы добавили сайт в закладки?
        Да
        Не


        Top 10 за неделю (Фильмы)