.
Авторизация | Регистрация
Хочешь лучшие торренты? Добавь свой email!
Добавить




Дабл трабл (2015) WEBRip-AVC торрент скачать бесплатно

Опубликовал: Админ | Дата: 21-06-2015, 05:01 | Просмотров: 164



Детально о кино
Русское название: Дабл трабл
Создали в: 2015
Категория жанра: комедия
Главный режиссер: Эдуард Оганесян

Актеры
Даниил Белых, Екатерина Варнава, Лера Куликова, Даниил Кузнец, Слава, Сергей Мезенцев, Владимир Тишко, Юлия Морозова, Лена Горностаева

Сюжет фильма
Беда не приходит одна
Роман ведет холостяцкий образ жизни и свое шоу на радио. Как заправский психолог он раздает советы слушателям, приправляя их колкими шутками. Пока одна из них не оборачивается против него самого. На вопрос 20-летней Алены, ехать ли ей к отцу, Роман отвечает Конечно! Я был бы рад. Он не знает, что в эфире — плод его случайной связи, а он сам в одночасье стал не только отцом, но и дедушкой Алениного сына. Новоиспеченные родственники погружают в ад беззаботного Романа и его девушку Сашу, светскую львицу и владелицу радиостанции. Не меньшее разочарование ждет и Алену. Только чудо сможет сделать их четверых одной семьей…

Снималось в: Россия
Киностудия: Базелевс Продакшн
Время просмотра: 01: 20: 21
Перевод текста: Оригинал
Файл
Кодек для видео: MPEG-4 AVC (MKV)
Качество фильма: WEBRip-AVC
Информация о видео: AVC, 1024x432, 2000 Kbps
Информация о звуке: AC3, 2 ch, 384 Kbps
Субтитры: нет

Скриншоты
MediaInfo
General
Unique ID : 269925830078645215445592319118983092003 (0xCB11D2EA88B2362DFDFFB8447EDCD723)
Complete name : D: ДИСК2.ФИЛЬМЫ СНГДабл трабл (2015)Dabl.Trabl.2015.O.WEBRip-AVC.mkv
Format : Matroska
Format version : Version 2
File size : 1.34 GiB
Duration : 1h 20mn
Overall bit rate : 2 387 Kbps
Encoded date : UTC 2015-06-19 08: 23: 07
Writing application : XviD4PSP 6.0/54.29.105
Writing library : XviD4PSP 6.0/54.29.105
Video
ID : 1
Format : AVC
Format/Info : Advanced Video Codec
Format profile : High@L4.1
Format settings, CABAC : Yes
Format settings, ReFrames : 6 frames
Codec ID : V_MPEG4/ISO/AVC
Duration : 1h 20mn
Bit rate : 2 000 Kbps
Width : 1 024 pixels
Height : 432 pixels
Display aspect ratio : 2.35: 1
Original display aspect ratio : 2.35: 1
Frame rate mode : Constant
Frame rate : 25.000 fps
Color space : YUV
Chroma subsampling : 4: 2: 0
Bit depth : 8 bits
Scan type : Progressive
Bits/(Pixel*Frame) : 0.181
Stream size : 1.10 GiB (82%)
Writing library : x264 core 128 r2216M 198a7ea
Encoding settings : cabac=1/ref=7/deblock=1: -3: -3/analyse=0x3: 0x133/me=umh/subme=7/psy=1/psy_rd=1.00: 0.20/mixed_ref=1/me_range=24/chroma_me=1/trellis=2/8x8dct=1/cqm=0/deadzone=21, 11/fast_pskip=1/chroma_qp_offset=-3/threads=6/lookahead_threads=1/sliced_threads=0/nr=0/decimate=1/interlaced=0/bluray_compat=0/constrained_intra=0/bframes=7/b_pyramid=1/b_adapt=2/b_bias=7/direct=3/weightb=1/open_gop=0/weightp=2/keyint=250/keyint_min=25/scenecut=40/intra_refresh=0/rc_lookahead=40/rc=2pass/mbtree=1/bitrate=2000/ratetol=1.0/qcomp=0.60/qpmin=0/qpmax=69/qpstep=4/cplxblur=20.0/qblur=0.5/ip_ratio=1.40/aq=1: 1.00
Default : Yes
Forced : No
_STATISTICS_WRITING_APP : mkvmerge v7.9.0 (;Birds;) 64bit
_STATISTICS_WRITING_DATE_UTC : 2015-06-19 08: 23: 07
_STATISTICS_TAGS : BPS DURATION NUMBER_OF_FRAMES NUMBER_OF_BYTES
DURATION : 01: 20: 21.040000000
NUMBER_OF_FRAMES : 120526
NUMBER_OF_BYTES : 2410578898
Audio
ID : 2
Format : AC-3
Format/Info : Audio Coding 3
Mode extension : CM (complete main)
Format settings, Endianness : Big
Codec ID : A_AC3
Duration : 1h 20mn
Bit rate mode : Constant
Bit rate : 384 Kbps
Channel(s) : 2 channels
Channel positions : Front: L R
Sampling rate : 48.0 KHz
Bit depth : 16 bits
Compression mode : Lossy
Delay relative to video : 27ms
Stream size : 221 MiB (16%)
Language : Russian
Default : Yes
Forced : No
_STATISTICS_TAGS : BPS DURATION NUMBER_OF_FRAMES NUMBER_OF_BYTES
DURATION : 01: 20: 21.024000000
NUMBER_OF_FRAMES : 150657
NUMBER_OF_BYTES : 231409152
_STATISTICS_WRITING_APP : mkvmerge v7.9.0 (;Birds;) 64bit
_STATISTICS_WRITING_DATE_UTC : 2015-06-19 08: 23: 07


Онлайн видео Дабл трабл (2015) WEBRip


Размер скачиваемого торрента: 1.34 GB (1438510657 Bytes)

Дабл трабл (2015) WEBRip-AVC
загрузка...
Рейтинг →
 (голосов: 1, оценка 4/5, голосовать можно 1 раз )

Другие торренты по теме:

  • Дабл трабл (2015) DVDRip лицензия
  • Дабл трабл (2015) WEBRip
  • Дабл трабл (2015) WEBRip от torrentfilm
  • Дабл трабл (2015) WEB-DLRip-AVC


    • Комментарии (0):

      Информация

      Информация

        Посетители, находящиеся в группе Гости, не могут оставлять комментарии в данной новости.

        ↓ Меню



        ↓ Опрос

        А Вы добавили сайт в закладки?
        Да
        Не


        Top 10 за месяц (Фильмы)