.
Авторизация | Регистрация
» » Из темноты / Out of the Dark (2014) BDRip 1080p | L2 скачать торрент бесплатно




    Из темноты / Out of the Dark (2014) BDRip 1080p | L2 скачать торрент бесплатно

    Опубликовал: Админ | Дата: 21-06-2015, 05:08 | Просмотров: 34




    Детально о кино
    Русское название: Из темноты
    Русское название в мировом прокате: Out of the Dark
    Создали в: 2014
    Категория жанра: Ужасы, триллер
    Главный режиссер: Йуис Килес

    Актеры
    Пикси Дейвис, Алехандро Ферт, Стивен Ри, Скотт Спидман, Джулия Стайлз


    Сюжет фильма
    Пара со своей дочерью переезжают в Колумбию, чтобы заняться делами их семейного обрабатывающего предприятия, но скоро они узнают, что их новый дом населен привидениями…



    Снималось в: США, Колумбия, Испания, Apaches Entertainment, Cactus Flower Producciones, Dynamo, Fast Producciones, Imagenation Abu Dhabi FZ, Participant Media, XYZ Films
    Время просмотра: 01: 33: 28
    Перевод текста: Любительский (двухголосый, закадровый)- DeadSno den904 , перевод - Антонио

    Файл
    Качество фильма: BDRip 1080p
    Тип видео: MKV
    Информация о видео: MPEG4/AVC, 8516 Кбит/сек, 1920х800 (2.40: 1), 23.976 кадра/сек
    Информация о звуке 1: AC3, 6 каналов, 448 Кбит/сек | DeadSno den904
    Информация о звуке 2: DTS, 6 каналов, 1509 Кбит/сек | Английский
    Субтитры: Английские (Forced, Full)
    Навигация по главам: Есть

    MediaInfo:
    Общее
    Уникальный идентификатор : 254220844266397223970961781055697868136 (0xBF412755583A4F25A0870D6A2BDA5568)
    Полное имя : Out of the Dark. (2014) BDRip 1080p.mkv
    Формат : Matroska
    Версия формата : Version 2
    Размер файла : 6, 84 Гбайт
    Продолжительность : 1 ч. 33 м.
    Общий поток : 10, 5 Мбит/сек
    Название фильма : Out of the Dark. 2014
    Дата кодирования : UTC 2015-06-20 13: 15: 36
    Программа кодирования : mkvmerge v5.8.0 (;No Sleep/Pillow;) built on Sep 2 2012 15: 37: 04
    Библиотека кодирования : libebml v1.2.3 + libmatroska v1.3.0

    Видео
    Идентификатор : 1
    Формат : AVC
    Формат/Информация : Advanced Video Codec
    Профиль формата : High@L4.1
    Параметр CABAC формата : Да
    Параметр ReFrames формата : 5 кадров
    Идентификатор кодека : V_MPEG4/ISO/AVC
    Продолжительность : 1 ч. 33 м.
    Битрейт : 8516 Кбит/сек
    Ширина : 1920 пикселей
    Высота : 800 пикселей
    Соотношение сторон : 2, 40: 1
    Режим частоты кадров : Постоянный
    Частота кадров : 23, 976 кадра/сек
    Цветовое пространство : YUV
    Субдискретизация насыщенности : 4: 2: 0
    Битовая глубина : 8 бит
    Тип развёртки : Прогрессивная
    Бит/(Пиксели*Кадры) : 0.231
    Размер потока : 5, 43 Гбайт (79%)
    Заголовок : MELiTE
    Библиотека кодирования : x264 core 146 r2538 121396c
    Настройки программы : cabac=1/ref=5/deblock=1: 0: 0/analyse=0x3: 0x113/me=umh/subme=8/psy=1/psy_rd=1.00: 0.00/mixed_ref=1/me_range=16/chroma_me=1/trellis=1/8x8dct=1/cqm=0/deadzone=21, 11/fast_pskip=0/chroma_qp_offset=-2/threads=12/lookahead_threads=2/sliced_threads=0/nr=0/decimate=1/interlaced=0/bluray_compat=0/constrained_intra=0/bframes=3/b_pyramid=2/b_adapt=2/b_bias=0/direct=3/weightb=1/open_gop=0/weightp=2/keyint=250/keyint_min=23/scenecut=40/intra_refresh=0/rc_lookahead=50/rc=2pass/mbtree=1/bitrate=8516/ratetol=1.0/qcomp=0.60/qpmin=0/qpmax=69/qpstep=4/cplxblur=20.0/qblur=0.5/ip_ratio=1.40/aq=1: 1.00
    Язык : English
    Default : Да
    Forced : Нет

    Аудио #1
    Идентификатор : 2
    Формат : AC-3
    Формат/Информация : Audio Coding 3
    Расширение режима : CM (complete main)
    Параметр Endianness формата : Big
    Идентификатор кодека : A_AC3
    Продолжительность : 1 ч. 33 м.
    Вид битрейта : Постоянный
    Битрейт : 448 Кбит/сек
    Каналы : 6 каналов
    Расположение каналов : Front: L C R, Side: L R, LFE
    Частота : 48, 0 КГц
    Битовая глубина : 16 бит
    Метод сжатия : С потерями
    Размер потока : 300 Мбайт (4%)
    Заголовок : L2 | DeadSno den904
    Язык : Russian
    Default : Да
    Forced : Нет

    Аудио #2
    Идентификатор : 3
    Формат : DTS
    Формат/Информация : Digital Theater Systems
    Режим : 16
    Параметр Endianness формата : Big
    Идентификатор кодека : A_DTS
    Продолжительность : 1 ч. 33 м.
    Вид битрейта : Постоянный
    Битрейт : 1509 Кбит/сек
    Каналы : 6 каналов
    Расположение каналов : Front: L C R, Side: L R, LFE
    Частота : 48, 0 КГц
    Битовая глубина : 24 бит
    Метод сжатия : С потерями
    Размер потока : 1009 Мбайт (14%)
    Заголовок : Original
    Язык : English
    Default : Нет
    Forced : Нет

    Текст #1
    Идентификатор : 4
    Формат : UTF-8
    Идентификатор кодека : S_TEXT/UTF8
    Идентификатор кодека/Информация : UTF-8 Plain Text
    Заголовок : Forced
    Язык : English
    Default : Нет
    Forced : Нет

    Текст #2
    Идентификатор : 5
    Формат : UTF-8
    Идентификатор кодека : S_TEXT/UTF8
    Идентификатор кодека/Информация : UTF-8 Plain Text
    Заголовок : Full
    Язык : English
    Default : Нет
    Forced : Нет

    Меню
    00: 00: 00.000 : en: 00: 00: 00.000
    00: 06: 59.419 : en: 00: 06: 59.419
    00: 11: 18.303 : en: 00: 11: 18.303
    00: 17: 54.198 : en: 00: 17: 54.198
    00: 23: 45.674 : en: 00: 23: 45.674
    00: 27: 25.352 : en: 00: 27: 25.352
    00: 32: 34.119 : en: 00: 32: 34.119
    00: 39: 01.256 : en: 00: 39: 01.256
    00: 43: 59.262 : en: 00: 43: 59.262
    00: 50: 20.434 : en: 00: 50: 20.434
    00: 58: 07.526 : en: 00: 58: 07.526
    01: 04: 08.053 : en: 01: 04: 08.053
    01: 10: 21.384 : en: 01: 10: 21.384
    01: 16: 30.211 : en: 01: 16: 30.211
    01: 21: 52.449 : en: 01: 21: 52.449
    01: 27: 40.088 : en: 01: 27: 40.088



    Релиз подготовил:

    Онлайн видео Из темноты


    Размер скачиваемого торрента: 6.84 GB (7343730645 Bytes)

    Из темноты/Out of the Dark (2014) BDRip 1080p | L2
    загрузка...
    Рейтинг →
     (голосов: 1, оценка 3/5, голосовать можно 1 раз )

    Другие торренты по теме:

  • Один дома 5: Один в темноте / Home Alone: The Holiday Heist (2012) HDTVRip 720p | L1 торрент скачать бесплатно
  • Встреча в темноте / Kurai tokoro de (2006) DVDRip | L1 торрент скачать бесплатно
  • Танцующая в темноте / Dancer in the Dark (2000) DVDRip от Scarabey | D торрент скачать бесплатно
  • Боязнь темноты / Afraid of the Dark (1991) HDTVRip 720p от MediaClub | P2 торрент скачать бесплатно
  • Не бойся темноты / Dont Be Afraid of the Dark (2010) DVD5 | Сжатый торрент скачать бесплатно
  • Темнота наступает / Darkness Falls (2003) BDRip | D торрент скачать бесплатно
  • Не бойся темноты / Dont Be Afraid of the Dark (2010) HDRip от Scarabey | D торрент скачать бесплатно
  • Прямо в темноту / Straight Into Darkness (2004) BDRip 1080p от MediaClub | L1 торрент скачать бесплатно


    • Комментарии (0):

      Информация

      Информация

        Посетители, находящиеся в группе Гости, не могут оставлять комментарии в данной новости.

        ↓ Меню



        ↓ Опрос

        А Вы добавили сайт в закладки?
        Да
        Не


        Top 10 за неделю (Фильмы)