.
Авторизация | Регистрация
» » Тренер / McFarland, USA (2015) HDRip-AVC от Scarabey | Р | Лицензия скачать торрент бесплатно




    Тренер / McFarland, USA (2015) HDRip-AVC от Scarabey | Р | Лицензия скачать торрент бесплатно

    Опубликовал: Админ | Дата: 21-06-2015, 05:10 | Просмотров: 58



    Создали в: 2015
    Снималось в: США
    Категория жанра: драма, спорт
    Время просмотра: 02: 08: 55
    Перевод текста: Профессиональный (многоголосый, закадровый) R5
    Субтитры подготовлены: нет
    Главный режиссер: Ники Каро/Niki Caro

    Актеры
    Кевин Костнер, Рамиро Родригес, Карлос Праттс, Джонни Ортиз, Рафаэль Мартинез, Гектор Дюран, Серджо Авелар, Майкл Агеро, Диана-Мария Рива, Омар Лейва

    Описание фильма
    История, основанная на реальных событиях. В начале девяностых, в маленьком городке МакФарланд, профессиональный тренер создает команду по легкой атлетике из обычных сорванцов и мелких хулиганов, и приводит эту команду до вершины спортивного Олимпа. Население МакФарланда — это 90 процентов латиноамериканцы, которые приехали в США под видом переселенцев и беженцев…
    Качество фильма видео: HDRip-AVC
    Тип видео видео: MKV
    Информация о видео: 1024х432, 23.976 fps, AVC, ~2200 kbps avg, 0.207 bit/pixel
    Информация о звуке: 48 kHz, AC3 Dolby Digital, 3/2 (L, C, R, l, r) + LFE ch, ~448 kbps
    Релиз подготовил:
    АНОНСЫ МОИХ РАЗДАЧ!


    МедиаИнфо
    ТренерTrener_2015_r5_AVC_HDRip_scarabey.org.mkv
    Format : Matroska
    Format version : Version 2
    File size : 2.39 GiB
    Duration : 2h 8mn
    Overall bit rate : 2 649 Kbps
    Encoded date : UTC 2015-06-16 16: 30: 22
    Writing application : mkvmerge v6.1.0 (;Old Devil;) built on Mar 4 2013 09: 10: 42
    Writing library : libebml v1.3.0 + libmatroska v1.4.0
    Video
    ID : 1
    Format : AVC
    Format/Info : Advanced Video Codec
    Format profile : High@L4.1
    Format settings, CABAC : Yes
    Format settings, ReFrames : 8 frames
    Codec ID : V_MPEG4/ISO/AVC
    Duration : 2h 8mn
    Bit rate : 2 200 Kbps
    Width : 1 024 pixels
    Height : 432 pixels
    Display aspect ratio : 2.35: 1
    Original display aspect ratio : 2.35: 1
    Frame rate mode : Constant
    Frame rate : 23.976 fps
    Color space : YUV
    Chroma subsampling : 4: 2: 0
    Bit depth : 8 bits
    Scan type : Progressive
    Bits/(Pixel*Frame) : 0.207
    Stream size : 1.93 GiB (81%)
    Writing library : x264 core 138 r2356 a1d3d17
    Encoding settings : cabac=1/ref=8/deblock=1: -3: -2/analyse=0x3: 0x113/me=umh/subme=10/psy=1/psy_rd=1.00: 0.05/mixed_ref=1/me_range=32/chroma_me=1/trellis=2/8x8dct=1/cqm=0/deadzone=21, 11/fast_pskip=0/chroma_qp_offset=-3/threads=12/lookahead_threads=2/sliced_threads=0/nr=0/decimate=0/interlaced=0/bluray_compat=0/constrained_intra=0/bframes=8/b_pyramid=2/b_adapt=2/b_bias=0/direct=3/weightb=1/open_gop=0/weightp=2/keyint=240/keyint_min=24/scenecut=40/intra_refresh=0/rc_lookahead=40/rc=2pass/mbtree=1/bitrate=2200/ratetol=1.0/qcomp=0.60/qpmin=0/qpmax=69/qpstep=4/cplxblur=20.0/qblur=0.5/ip_ratio=1.40/aq=1: 1.00
    Default : Yes
    Forced : No
    Audio
    ID : 2
    Format : AC-3
    Format/Info : Audio Coding 3
    Mode extension : CM (complete main)
    Format settings, Endianness : Big
    Codec ID : A_AC3
    Duration : 2h 8mn
    Bit rate mode : Constant
    Bit rate : 448 Kbps
    Channel(s) : 6 channels
    Channel positions : Front: L C R, Side: L R, LFE
    Sampling rate : 48.0 KHz
    Bit depth : 16 bits
    Compression mode : Lossy
    Stream size : 413 MiB (17%)
    Default : Yes
    Forced : No

    Скриншоты


    Онлайн видео Тренер


    Размер скачиваемого торрента: 2.39 GB (2561552729 Bytes)

    Тренер/McFarland, USA (2015) HDRip-AVC от Scarabey | Р | Лицензия
    загрузка...
    Рейтинг →
     (голосов: 1, оценка 5/5, голосовать можно 1 раз )

    Другие торренты по теме:

  • Тимко Илья Сергеевич - ТВОЙ ТРЕНЕР. Основы и нюансы любительского атлетизма (2012) PDF торрент скачать бесплатно
  • Самый лучший тренер / Finding Lenny (2009) SATRip от RG MixTorrent | P торрент скачать бесплатно
  • Тренер Картер / Coach Carter (2005) BDRemux | P торрент скачать бесплатно
  • Тимко Илья. Твой Тренер - основы и нюансы любительского атлетизма (2013) PDF торрент скачать бесплатно
  • Тимко Илья - ТВОЙ ТРЕНЕР - основы и нюансы любительского атлетизма (ИЗДАНИЕ 4) (2013) PDF торрент скачать бесплатно
  • Тимко Илья - Твой Тренер - основы и нюансы любительского атлетизма (ИЗДАНИЕ 5) (2013) PDF торрент скачать бесплатно
  • Тимко Илья - Твой тренер: основы и нюансы любительского атлетизма (2013) PDF скачать через торрент бесплатно
  • Тренер / Coach (2010) HDTVRip от MediaClub | P2 торрент скачать бесплатно


    • Комментарии (0):

      Информация

      Информация

        Посетители, находящиеся в группе Гости, не могут оставлять комментарии в данной новости.

        ↓ Меню



        ↓ Опрос

        А Вы добавили сайт в закладки?
        Да
        Не


        Top 10 за неделю (Фильмы)