.
Авторизация | Регистрация
» » Под электрическими облаками (2015) WEB-DL 1080p | iTunes скачать торрент бесплатно




    Под электрическими облаками (2015) WEB-DL 1080p | iTunes скачать торрент бесплатно

    Опубликовал: Админ | Дата: 22-06-2015, 05:01 | Просмотров: 103



    Детально о кино
    Русское название: Под электрическими облаками
    Создали в: 2015
    Категория жанра: Драма
    Главный режиссер: Алексей Герман мл.

    Актеры
    Мераб Нинидзе, Анастасия Мельникова, Чулпан Хаматова, Вениамин Кац, Петр Гасовский, Константин Зелигер, Виктор Бугаков, Виктория Короткова, Луис Франк, Карим Пакачаков, Мария Цап-Страшилина, Анастасия Фомина, Мария Олейникова, Филипп Дьячков, Рамиль Салахутдинов, Алексей Вертинский, Сергей Сипливый, Ирина Соколова, Владимир Раннев, Дмитрий Воздвиженский

    Сюжет фильма

    Действие фильма происходит в 2017 году. Мир находится в ожидании большой войны. Герои фильма живут совершенно разными жизнями, но каждый из них принадлежит к тем, кого в классической русской литературе называют лишними людьми. Это история об их жизни, преодолениях и борьбе. Это также история одного недостроенного здания, вокруг которого оказались разбросаны их судьбы.

    Официальный сайт
    Снималось в: Россия, Польша, Украина, Apple Film Productions, Linked Films, Метрафильмс, Telewizja Polska (TVP), Tor Film
    Время просмотра: 02: 17: 42
    Перевод текста: Оригинальное iTunes
    Файл
    Тип видео: MKV
    Качество фильма: WEB-DL 1080p
    Информация о видео: MPEG-4 AVC, 4132 Кбит/с, 1920x800
    Информация о звуке: АС3, 6 ch, 384 Кбит/с
    Семпл
    MI

    Общее
    Уникальный идентификатор : 184094434162552992628117716217131361527 (0x8A7F4C5FAC879BDAB9D3E4F65FBAE4F7)
    Полное имя : F: Раздача HDPod.jelektricheskimi.oblakami.2015.WEB-DL.(1080p).mkv
    Формат : Matroska
    Версия формата : Version 4/Version 2
    Размер файла : 4, 43 Гбайт
    Продолжительность : 2 ч. 17 м.
    Общий поток : 4608 Кбит/сек
    Дата кодирования : UTC 2015-06-18 18: 24: 11
    Программа кодирования : mkvmerge v6.9.1 (;Blue Panther;) 64bit built on Apr 18 2014 18: 23: 38
    Библиотека кодирования : libebml v1.3.0 + libmatroska v1.4.1
    Видео
    Идентификатор : 1
    Формат : AVC
    Формат/Информация : Advanced Video Codec
    Профиль формата : High@L4.0
    Параметр CABAC формата : Да
    Параметр ReFrames формата : 5 кадров
    Идентификатор кодека : V_MPEG4/ISO/AVC
    Продолжительность : 2 ч. 17 м.
    Битрейт : 4132 Кбит/сек
    Ширина : 1920 пикселей
    Высота : 800 пикселей
    Соотношение сторон : 2, 40: 1
    Режим частоты кадров : Постоянный
    Частота кадров : 24, 000 кадра/сек
    Цветовое пространство : YUV
    Субдискретизация насыщенности : 4: 2: 0
    Битовая глубина : 8 бит
    Тип развёртки : Прогрессивная
    Бит/(Пиксели*Кадры) : 0.112
    Размер потока : 3, 97 Гбайт (90%)
    Язык : English
    Default : Да
    Forced : Нет
    Основные цвета : BT.709
    Характеристики трансфера : BT.709
    Коэффициенты матрицы : BT.709
    Аудио
    Идентификатор : 2
    Формат : AC-3
    Формат/Информация : Audio Coding 3
    Расширение режима : CM (complete main)
    Параметр Endianness формата : Big
    Идентификатор кодека : A_AC3
    Продолжительность : 2 ч. 17 м.
    Вид битрейта : Постоянный
    Битрейт : 384 Кбит/сек
    Каналы : 6 каналов
    Расположение каналов : Front: L C R, Side: L R, LFE
    Частота : 48, 0 КГц
    Битовая глубина : 16 бит
    Метод сжатия : С потерями
    Размер потока : 378 Мбайт (8%)
    Язык : Russian
    Default : Да
    Forced : Нет
    Меню
    00: 00: 00.000 : en: Р“Рава 1
    00: 05: 18.000 : en: Р“Рава 2
    00: 11: 56.000 : en: Р“Рава 3
    00: 18: 39.000 : en: Р“Рава 4
    00: 21: 29.000 : en: Р“Рава 5
    00: 26: 55.000 : en: Р“Рава 6
    00: 29: 54.000 : en: Р“Рава 7
    00: 36: 44.000 : en: Р“Рава 8
    00: 45: 31.000 : en: Р“Рава 9
    00: 52: 30.000 : en: Р“Рава 10
    00: 59: 20.000 : en: Р“Рава 11
    01: 06: 54.000 : en: Р“Рава 12
    01: 13: 18.000 : en: Р“Рава 13
    01: 20: 11.000 : en: Р“Рава 14
    01: 26: 09.000 : en: Р“Рава 15
    01: 32: 40.000 : en: Р“Рава 16
    01: 37: 37.000 : en: Р“Рава 17
    01: 44: 09.000 : en: Р“Рава 18
    01: 48: 23.000 : en: Р“Рава 19
    01: 53: 46.000 : en: Р“Рава 20
    01: 58: 08.000 : en: Р“Рава 21
    02: 04: 56.000 : en: Р“Рава 22
    Награды

    Берлинский кинофестиваль, 2015 год
    Победитель (1):
    Серебряный Медведь за выдающиеся художественные достижения (Сергей Михальчук, Евгений Привин)
    Номинации (1):
    Золотой Медведь
    Скриншоты

    Залил: grab777

    Онлайн видео Под электрическими облаками (2015) WEB-DL 1080p


    Размер скачиваемого торрента: 4.43 GB (4758661928 Bytes)

    Под электрическими облаками (2015) WEB-DL 1080p | iTunes
    загрузка...
    Рейтинг →
     (голосов: 1, оценка 5/5, голосовать можно 1 раз )

    Другие торренты по теме:

  • Под электрическими облаками (2015) HDRip скачать торрент бесплатно
  • Под электрическими облаками (2015) WEB-DLRip скачать торрент бесплатно
  • Под электрическими облаками (2015) WEB-DLRip скачать торрент бесплатно
  • Под электрическими облаками (2015) WEB-DL 720p | iTunes скачать торрент бесплатно


    • Комментарии (0):

      Информация

      Информация

        Посетители, находящиеся в группе Гости, не могут оставлять комментарии в данной новости.

        ↓ Меню



        ↓ Опрос

        А Вы добавили сайт в закладки?
        Да
        Не


        Top 10 за неделю (Фильмы)