.
Авторизация | Регистрация
» » Война волков / Wolf Warrior (2015) BDRip 720p | L1 скачать торрент бесплатно




    Война волков / Wolf Warrior (2015) BDRip 720p | L1 скачать торрент бесплатно

    Опубликовал: Админ | Дата: 22-06-2015, 05:08 | Просмотров: 147



    Детально о кино
    Русское название: Война волков
    Русское название в мировом прокате: Wolf Warrior
    Создали в: 2015
    Категория жанра: боевик, военный
    Главный режиссер: Джеки Ву

    Актеры
    Джеки Ву, Скотт Эдкинс, Кевин Ли, Кайл Шапиро, Кристофер Коллинз, Цзыи Ден, Сона Эямбе, Сэмюэл Тивирдж, Нань Юй, Вэньчжо Чжао

    Сюжет фильма
    Своенравное поведение командира Лэн Фэна, офицера спецназа, часто вызывает недовольство у вышестоящего начальства. Во время штурма тайного убежища наркоторговцев Фэн нарушает прямой приказ и спасает положение, метким выстрелом убивая наркобарона. После отбывания срока за неподчинение приказам и неповиновение, Фэна, благодаря его навыкам и храбрости, принимают в китайский элитный отряд под названием Wolf Warrior. Пройдя вместе со своими подчинёнными ряд суровых занятий и тренировок, он, в итоге, собирает команду, которую может назвать своей собственной. Но дело принимает плохой оборот, когда во время финальной стадии учений они попадают в засаду, устроенную высококвалифицированными иностранными наёмниками во главе с Томом, поклявшимся отомстить Лэн Фэну и его людям за убийство своего бывшего работодателя. Линия фронта очерчена, и отступать или сдаваться не собирается ни одна из сторон.


    Снималось в: Китай/Chunqiu Time Co.
    Время просмотра: 01: 30: 03
    Тип перевода: Любительское (одноголосое) RAIM
    Файл
    Тип видео: MKV
    Качество фильма: BDRip 720p
    Информация о видео: 5500 kb/s, 1280x536
    Информация о звуке: Русский: AC3, 192 kb/s (2 ch)/Китайский: AC3, 640 kb/s (6 ch)
    Субтитры: китайские, английские
    MI

    Format : Matroska
    Format version : Version 4/Version 2
    File size : 3.98 GiB
    Duration : 1h 30mn
    Overall bit rate : 6 330 Kbps
    Encoded date : UTC 2015-06-21 11: 00: 50
    Writing application : mkvmerge v6.1.0 (;Old Devil;) built on Mar 4 2013 09: 10: 42
    Writing library : libebml v1.3.0 + libmatroska v1.4.0
    Video
    ID : 1
    Format : AVC
    Format/Info : Advanced Video Codec
    Format profile : High@L4.1
    Format settings, CABAC : Yes
    Format settings, ReFrames : 12 frames
    Codec ID : V_MPEG4/ISO/AVC
    Duration : 1h 30mn
    Bit rate : 5 500 Kbps
    Width : 1 280 pixels
    Height : 536 pixels
    Display aspect ratio : 2.40: 1
    Frame rate : 23.976 fps
    Color space : YUV
    Chroma subsampling : 4: 2: 0
    Bit depth : 8 bits
    Scan type : Progressive
    Bits/(Pixel*Frame) : 0.334
    Stream size : 3.38 GiB (85%)
    Writing library : x264 core 142 r2431+42 c69a006 tMod 8-bit@all X86_64
    Encoding settings : cabac=1/ref=12/deblock=1: -2: -2/analyse=0x3: 0x133/me=umh/subme=11/psy=1/fade_compensate=0.00/psy_rd=1.05: 0.05/mixed_ref=1/me_range=32/chroma_me=1/trellis=2/8x8dct=1/cqm=0/deadzone=21, 11/fast_pskip=0/chroma_qp_offset=-3/threads=12/lookahead_threads=2/sliced_threads=0/nr=0/decimate=0/interlaced=0/bluray_compat=0/constrained_intra=0/fgo=0/bframes=8/b_pyramid=2/b_adapt=2/b_bias=0/direct=3/weightb=1/open_gop=0/weightp=2/keyint=250/keyint_min=23/scenecut=40/intra_refresh=0/rc=2pass/mbtree=0/bitrate=5500/ratetol=1.0/qcomp=0.70/qpmin=0: 0: 0/qpmax=69: 69: 69/qpstep=4/cplxblur=20.0/qblur=0.5/ip_ratio=1.40/pb_ratio=1.30/aq=1: 0.90/aq-sensitivity=10.00/aq-factor=1.00: 1.00: 1.00/aq2=0/aq3=0
    Language : Chinese
    Default : Yes
    Forced : No
    Matrix coefficients : BT.709-5, BT.1361, IEC 61966-2-4 709, SMPTE RP177
    Audio #1
    ID : 2
    Format : AC-3
    Format/Info : Audio Coding 3
    Mode extension : CM (complete main)
    Format settings, Endianness : Big
    Codec ID : A_AC3
    Duration : 1h 30mn
    Bit rate mode : Constant
    Bit rate : 192 Kbps
    Channel(s) : 2 channels
    Channel positions : Front: L R
    Sampling rate : 48.0 KHz
    Bit depth : 16 bits
    Compression mode : Lossy
    Stream size : 124 MiB (3%)
    Language : Russian
    Default : Yes
    Forced : No
    Audio #2
    ID : 3
    Format : AC-3
    Format/Info : Audio Coding 3
    Mode extension : CM (complete main)
    Format settings, Endianness : Big
    Codec ID : A_AC3
    Duration : 1h 30mn
    Bit rate mode : Constant
    Bit rate : 640 Kbps
    Channel(s) : 6 channels
    Channel positions : Front: L C R, Side: L R, LFE
    Sampling rate : 48.0 KHz
    Bit depth : 16 bits
    Compression mode : Lossy
    Stream size : 412 MiB (10%)
    Title : Mandarin
    Language : Chinese
    Default : No
    Forced : No
    Text #1
    ID : 4
    Format : UTF-8
    Codec ID : S_TEXT/UTF8
    Codec ID/Info : UTF-8 Plain Text
    Title : CHS
    Language : Chinese
    Default : No
    Forced : No
    Text #2
    ID : 5
    Format : UTF-8
    Codec ID : S_TEXT/UTF8
    Codec ID/Info : UTF-8 Plain Text
    Title : CHT
    Language : Chinese
    Default : No
    Forced : No
    Text #3
    ID : 6
    Format : UTF-8
    Codec ID : S_TEXT/UTF8
    Codec ID/Info : UTF-8 Plain Text
    Language : English
    Default : No
    Forced : No
    Menu
    00: 00: 00.000 : en: 00: 00: 00.000
    00: 06: 26.678 : en: 00: 06: 26.678
    00: 11: 18.261 : en: 00: 11: 18.261
    00: 16: 34.160 : en: 00: 16: 34.160
    00: 22: 01.278 : en: 00: 22: 01.278
    00: 29: 41.029 : en: 00: 29: 41.029
    00: 37: 21.990 : en: 00: 37: 21.990
    00: 45: 28.225 : en: 00: 45: 28.225
    00: 52: 36.612 : en: 00: 52: 36.612
    01: 01: 48.371 : en: 01: 01: 48.371
    01: 09: 52.647 : en: 01: 09: 52.647
    01: 23: 28.003 : en: 01: 23: 28.003
    Скриншоты





    Онлайн видео Война волков


    Размер скачиваемого торрента: 3.98 GB (4275769430 Bytes)

    Война волков/Wolf Warrior (2015) BDRip 720p | L1
    загрузка...
    Рейтинг →
     (голосов: 1, оценка 4/5, голосовать можно 1 раз )

    Другие торренты по теме:

  • Война волков / Wolf Warrior (2015) HDRip | L1 скачать торрент бесплатно
  • Война волков / Wolf Warrior (2015) BDRip 1080p | L1 скачать торрент бесплатно
  • Война волков / Wolf Warrior (2015) BDRip AVC | L1 скачать торрент бесплатно
  • Война волков / Wolf Warrior (2015) DVDRip от MAGNAT231 | КПК | L1 скачать торрент бесплатно
  • Звездные волки 2: Гражданская война / Star Wolves 2: The Civil War (2009) PC | Лицензия торрент скачать бесплатно


    • Комментарии (0):

      Информация

      Информация

        Посетители, находящиеся в группе Гости, не могут оставлять комментарии в данной новости.

        ↓ Меню



        ↓ Опрос

        А Вы добавили сайт в закладки?
        Да
        Не


        Top 10 за неделю (Фильмы)

        Ёлки 5 (2016) WEB-DLRip скачать торрент бесплатно

        (просмотров: 2481)
        Разрушение / Demolition (2015) BDRemux 1080p от ExKinoRay | L скачать торрент бесплатно

        (просмотров: 1111)
        Мой парень – киллер / Mr. Right (2015) WEB-DL 1080p | L скачать торрент бесплатно

        (просмотров: 1051)
        Экипаж (2016) BDRip от New-Team | D | Лицензия скачать торрент бесплатно
        АНОНСЫ МОИХ РАЗДАЧ
        (просмотров: 901)
        Экипаж (2016) BDRip от New-Team | D | Лицензия скачать торрент бесплатно
        АНОНСЫ МОИХ РАЗДАЧ
        (просмотров: 901)
        Гений / Genius (2016) WEB-DLRip 1080p | Звук TS скачать торрент бесплатно

        (просмотров: 891)
        Демон внутри / Вскрытие Джейн Доу / The Autopsy of Jane Doe (2016) WEB-DLRip от Scarabey | P скачать торрент бесплатно
        Мы В КОНТАКТЕ =)
        (просмотров: 811)
        Кухня (1-5 сезоны: 1-100 серии из 100 + 2 бонуса) / 2012-2015 / РУ / DVDRip, WEB-DLRip скачать торрент бесплатно

        (просмотров: 811)
        Бригада (2002) HDDVDRip-AVC от TORRENT-45

        (просмотров: 811)
        Равные / Equals (2015) WEB-DLRip | L2 скачать торрент бесплатно

        (просмотров: 811)