.
Авторизация | Регистрация
» » Прежде чем я уйду / Just Before I Go (2014) HDRip-AVC | L1 скачать торрент бесплатно




    Прежде чем я уйду / Just Before I Go (2014) HDRip-AVC | L1 скачать торрент бесплатно

    Опубликовал: Админ | Дата: 22-06-2015, 05:08 | Просмотров: 95




    Детально о кино
    Русское название: Прежде чем я уйду
    Русское название в мировом прокате: Just Before I Go
    Создали в: 2014
    Категория жанра: драма, комедия
    Снималось в: США
    Время просмотра: 01: 30: 43
    Перевод текста: Любительский одноголосый Paul Bunyan (присутствует ненормативная лексика)
    Главный режиссёр: Кортни Кокс

    Актеры
    Шонн Уильям Скотт, Оливия Тирлби, Гаррет Диллахант, Кейт Уолш, Кайл Галлнер, Роб Риггл, Ивэн Росс, Клео Кинг, Мисси Пайл, Элиша Катберт

    Сюжет фильма
    Жизнь Теда потрепала его так, что стал задумываться о самоубийстве. До такого решения мужчина шел долгое время, ведь еще с самого детства он ощутил на себе, что такое неприятности. Когда он был подростком, то его постоянно терзали и оскорбляли хулиганы, а учитель математики и вовсе любил унижать Теда перед остальными учениками. Со временем детские обиды поутихли, но все же неприятный осадок остался.

    Релиз подготовил: FAGOT100
    Файл
    Качество фильма: HDRip-AVC
    Информация о видео: AVC/H.264, 1072x448 (2.35: 1), ~1 922 Kbps
    Информация о звуке: AC3, 6 ch, 384 Kbp, CBR
    Mediainfo:

    Формат : Matroska
    Версия формата : Version 2
    Размер файла : 1, 46 Гбайт
    Продолжительность : 1 ч. 30 м.
    Общий поток : 2306 Кбит/сек
    Дата кодирования : UTC 2015-06-20 19: 26: 54
    Программа кодирования : mkvmerge v5.3.0 (;I could have danced;) built on Feb 9 2012 10: 38: 07
    Библиотека кодирования : libebml v1.2.3 + libmatroska v1.3.0
    Attachment : Yes
    Видео
    Идентификатор : 1
    Формат : AVC
    Формат/Информация : Advanced Video Codec
    Профиль формата : High@L4.1
    Параметр CABAC формата : Да
    Параметр ReFrames формата : 8 кадров
    Идентификатор кодека : V_MPEG4/ISO/AVC
    Продолжительность : 1 ч. 30 м.
    Битрейт : 1922 Кбит/сек
    Ширина : 1072 пикселя
    Высота : 448 пикселей
    Соотношение сторон : 2, 40: 1
    Режим частоты кадров : Постоянный
    Частота кадров : 23, 976 кадра/сек
    Цветовое пространство : YUV
    Субдискретизация насыщенности : 4: 2: 0
    Битовая глубина : 8 бит
    Тип развёртки : Прогрессивная
    Бит/(Пиксели*Кадры) : 0.167
    Размер потока : 1, 19 Гбайт (81%)
    Библиотека кодирования : x264 core 146 r2538 121396c
    Настройки программы : cabac=1/ref=8/deblock=1: -3: -3/analyse=0x3: 0x133/me=umh/subme=10/psy=1/psy_rd=1.00: 0.00/mixed_ref=1/me_range=24/chroma_me=1/trellis=2/8x8dct=1/cqm=0/deadzone=21, 11/fast_pskip=1/chroma_qp_offset=-2/threads=12/lookahead_threads=1/sliced_threads=0/nr=0/decimate=0/interlaced=0/bluray_compat=0/constrained_intra=0/bframes=6/b_pyramid=2/b_adapt=2/b_bias=0/direct=3/weightb=1/open_gop=0/weightp=2/keyint=240/keyint_min=23/scenecut=40/intra_refresh=0/rc=2pass/mbtree=0/bitrate=1922/ratetol=1.0/qcomp=0.60/qpmin=0/qpmax=69/qpstep=4/cplxblur=20.0/qblur=0.5/ip_ratio=1.40/pb_ratio=1.30/aq=1: 1.00
    Язык : English
    Default : Да
    Forced : Нет
    Аудио
    Идентификатор : 2
    Формат : AC-3
    Формат/Информация : Audio Coding 3
    Расширение режима : CM (complete main)
    Параметр Endianness формата : Big
    Идентификатор кодека : A_AC3
    Продолжительность : 1 ч. 30 м.
    Вид битрейта : Постоянный
    Битрейт : 384 Кбит/сек
    Каналы : 6 каналов
    Расположение каналов : Front: L C R, Side: L R, LFE
    Частота : 48, 0 КГц
    Битовая глубина : 16 бит
    Метод сжатия : С потерями
    Размер потока : 249 Мбайт (17%)
    Заголовок : Одноголосый закадровый, любительский (Paul Bunyan)
    Default : Да
    Forced : Нет

    Скриншоты:



    Онлайн видео Прежде чем я уйду


    Размер скачиваемого торрента: 1.46 GB (1569176987 Bytes)

    Прежде чем я уйду/Just Before I Go (2014) HDRip-AVC | L1
    загрузка...
    Рейтинг →
     (голосов: 1, оценка 4/5, голосовать можно 1 раз )

    Другие торренты по теме:

  • Прежде чем я усну (2014) HDRip лицензия торрент скачать бесплатно
  • Прежде чем я усну торрент скачать бесплатно
  • Прежде чем я усну / Before I Go to Sleep скачать через торрент бесплатно
  • Прежде чем я усну / Before I Go to Sleep (2014) WEB-DL 720p | iTunes скачать через торрент бесплатно
  • Прежде чем я усну / Before I Go to Sleep (2014) BDRip 1080p от NNNB | RUS Transfer торрент скачать бесплатно
  • Прежде чем я уйду / Just Before I Go (2014) BDRip 1080p от HDReactor | L1 скачать торрент бесплатно
  • Прежде чем я уйду / Just Before I Go (2014) HDRip | L1 скачать торрент бесплатно
  • Прежде чем я уйду / Just Before I Go (2014) BDRip 1080p | P скачать торрент бесплатно


    • Комментарии (0):

      Информация

      Информация

        Посетители, находящиеся в группе Гости, не могут оставлять комментарии в данной новости.

        ↓ Меню



        ↓ Опрос

        А Вы добавили сайт в закладки?
        Да
        Не


        Top 10 за неделю (Фильмы)