.
Авторизация | Регистрация
Хочешь лучшие торренты? Добавь свой email!
Добавить
» » Воспоминания о будущем / Testament of Youth (2014) BDRip 720p от KinoGadget | iPad торрент скачать бесплатно




    Воспоминания о будущем / Testament of Youth (2014) BDRip 720p от KinoGadget | iPad торрент скачать бесплатно

    Опубликовал: Админ | Дата: 22-06-2015, 05:13 | Просмотров: 106



    Создали в: 2014
    Снималось в: Великобритания
    Категория жанра: драма, военный, биография, история
    Время просмотра: 02: 09: 44
    Перевод текста: Дублированный
    Главный режиссер: Джеймс Кент

    Актеры
    Алисия Викандер, Кит Харингтон, Эмили Уотсон, Хейли Этвелл, Колин Морган, Доминик Уэст, Миранда Ричардсон, Тэрон Эджертон, Джоэнна Скэнлэн, Рэйчел Редфорд
    Описание: Британская женщина вспоминает о том, как она жила во времена Первой мировой войны. Ее юность, мечты, первую любовь — все это разрушила война.

    Информация о видео кодек: MPEG-4 AVC
    Качество фильма: BDRip 720p
    Параметры Видео: 1280x536, 23.976 fps; ~1 905 kbps avg
    Параметры Звука: 44.1 KHz, AAC, ~150.00 kbps avg, 2ch
    Тип видео: mp4
    Автор рипа:
    Релиз-группа:

    Meta Tags


    MI
    General
    Complete name : E: Vospominaniya_o_budushhem.2014.D.BDRip.720p_KinoGadget.mp4
    Format : MPEG-4
    Format profile : Base Media
    Codec ID : isom
    File size : 1.87 GiB
    Duration : 2h 9mn
    Overall bit rate mode : Variable
    Overall bit rate : 2 062 Kbps
    Movie name : Воспоминания о будущем
    Performer : Джеймс Кент
    Genre : Drama, Historical
    ContentType : Short Film
    Recorded date : 2014
    Encoded date : UTC 2015-06-21 15: 13: 19
    Tagged date : UTC 2015-06-21 15: 28: 46
    Cover : Yes
    ContentRating : mpaa|PG-13|300|
    LongDeion : Британская женщина вспоминает о том, как она жила во времена Первой мировой войны. Ее юность, мечты, первую любовь — все это разрушила война.
    HDVideo : Yes
    Video
    ID : 1
    Format : AVC
    Format/Info : Advanced Video Codec
    Format profile : High@L4.1
    Format settings, CABAC : Yes
    Format settings, ReFrames : 11 frames
    Codec ID : avc1
    Codec ID/Info : Advanced Video Coding
    Duration : 2h 9mn
    Bit rate : 1 905 Kbps
    Maximum bit rate : 7 846 Kbps
    Width : 1 280 pixels
    Height : 536 pixels
    Display aspect ratio : 2.40: 1
    Frame rate mode : Constant
    Frame rate : 23.976 fps
    Color space : YUV
    Chroma subsampling : 4: 2: 0
    Bit depth : 8 bits
    Scan type : Progressive
    Bits/(Pixel*Frame) : 0.116
    Stream size : 1.73 GiB (92%)
    Writing library : x264 core 146 r2538 121396c
    Encoding settings : cabac=1/ref=11/deblock=1: -1: -1/analyse=0x3: 0x133/me=umh/subme=9/psy=1/psy_rd=1.00: 0.00/mixed_ref=1/me_range=24/chroma_me=1/trellis=2/8x8dct=1/cqm=0/deadzone=21, 11/fast_pskip=1/chroma_qp_offset=-2/threads=3/lookahead_threads=1/sliced_threads=0/nr=0/decimate=1/interlaced=0/bluray_compat=0/constrained_intra=0/bframes=4/b_pyramid=2/b_adapt=2/b_bias=0/direct=3/weightb=1/open_gop=0/weightp=2/keyint=240/keyint_min=23/scenecut=40/intra_refresh=0/rc_lookahead=60/rc=crf/mbtree=1/crf=21.0/qcomp=0.60/qpmin=0/qpmax=69/qpstep=4/ip_ratio=1.40/aq=1: 1.50
    Encoded date : UTC 2015-06-17 10: 10: 52
    Tagged date : UTC 2015-06-21 15: 14: 18
    Audio
    ID : 2
    Format : AAC
    Format/Info : Advanced Audio Codec
    Format profile : LC
    Codec ID : 40
    Duration : 2h 9mn
    Bit rate mode : Variable
    Bit rate : 150 Kbps
    Maximum bit rate : 223 Kbps
    Channel count : 2 channels
    Channel positions : Front: L R
    Sampling rate : 44.1 KHz
    Compression mode : Lossy
    Stream size : 139 MiB (7%)
    Language : Russian
    Encoded date : UTC 2015-06-21 15: 14: 05
    Tagged date : UTC 2015-06-21 15: 14: 18

    Скриншоты


    Залил: KinoGadget

    Онлайн видео Воспоминания о будущем


    Размер скачиваемого торрента: 1.87 GB (2006394090 Bytes)

    Воспоминания о будущем/Testament of Youth (2014) BDRip 720p от KinoGadget | iPad
    загрузка...
    Рейтинг →
     (голосов: 1, оценка 5/5, голосовать можно 1 раз )

    Другие торренты по теме:

  • Николай Никулин - Воспоминания о войне (2012) MP3
  • Reflex - Воспоминания о будущем (2014) MP3 от AGR - Generalfilm
  • Воспоминания о будущем (2014) HDRip
  • Воспоминания о будущем / Testament of Youth (2014) HDRip | iTunes
  • Воспоминания о будущем / Testament of Youth (2014) HDRip | iTunes
  • Воспоминания о будущем / Testament of Youth (2014) BDRip 720p | iTunes
  • Воспоминания о будущем / Testament of Youth (2014) BDRip 1080p | iTunes
  • Воспоминания о будущем / Testament of Youth (2014) BDRip 720p | iTunes


    • Комментарии (0):

      Информация

      Информация

        Посетители, находящиеся в группе Гости, не могут оставлять комментарии в данной новости.

        ↓ Меню



        ↓ Опрос

        А Вы добавили сайт в закладки?
        Да
        Не


        Top 10 за месяц (Фильмы)