.
Авторизация | Регистрация
Хочешь лучшие торренты? Добавь свой email!
Добавить
» » Годзилла / Godzilla (1998) BDRip 1080 от SuperMin | Mastered in 4K торрент скачать бесплатно




    Годзилла / Godzilla (1998) BDRip 1080 от SuperMin | Mastered in 4K торрент скачать бесплатно

    Опубликовал: Админ | Дата: 22-06-2015, 05:13 | Просмотров: 74



    Детально о кино
    Русское название: Годзилла
    Русское название в мировом прокате: Godzilla
    Создали в: 1998
    Категория жанра: фантастика, боевик
    Главный режиссер: Роланд Эммерих

    Актеры
    Мэттью Бродерик, Жан Рено, Мария Питилло, Хэнк Азария, Кевин Данн, Майкл Лернер, Гарри Ширер, Арабелла Филд, Викки Льюис, Даг Сэвант

    Сюжет фильма

    Из тихоокеанских джунглей на Нью-Йорк надвинулась страшная катастрофа. На глазах у потрясенных жителей рушатся небоскребы, переворачиваются автобусы, уходят под землю целые кварталы. Но это не ураган и не землетрясение. Это — Годзилла, самое ужасное чудовище в истории.
    Для него человеческая цивилизация — лишь жалкий муравейник, дома — спичечные коробки, вертолеты — назойливые стрекозы. Мегаполису грозит полное уничтожение. Армия, оснащенная по последнему слову техники, не в силах противостоять гигантской ящерице. Небольшой группе смельчаков предстоит выяснить, зачем Годзилла пришел в Нью-Йорк. Возможно, тогда им удастся спасти город…

    Снималось в: США
    Киностудия: TriStar Pictures
    Время просмотра: 02: 18: 43
    Перевод текста: Дублированный
    Файл
    Кодек для видео: h264
    Качество фильма: BDRip 1080 от SuperMin
    Информация о видео: 1920х800 (2.40: 1), 7565 Kbps, 23.976 fps
    Информация о звуке: Русский (AC-3, 6ch, 640 kbps)
    Лог
    x264 info: frame I: 1167 Avg QP: 17.75 size: 155108
    x264 info: frame P: 48616 Avg QP: 20.34 size: 68520
    x264 info: frame B: 149777 Avg QP: 22.41 size: 29100
    x264 info: consecutive B-frames: 2.9% 4.6% 9.4% 27.6% 19.8% 30.2% 3.6% 1.4% 0.4% 0.1%

    MI
    Video
    ID : 1
    Format : AVC
    Format/Info : Advanced Video Codec
    Format profile : High@L4.1
    Format settings, CABAC : Yes
    Format settings, ReFrames : 5 frames
    Codec ID : V_MPEG4/ISO/AVC
    Duration : 2h 18mn
    Bit rate : 7 565 Kbps
    Width : 1 920 pixels
    Height : 800 pixels
    Display aspect ratio : 2.40: 1
    Frame rate mode : Constant
    Frame rate : 23.976 fps
    Color space : YUV
    Chroma subsampling : 4: 2: 0
    Bit depth : 8 bits
    Scan type : Progressive
    Bits/(Pixel*Frame) : 0.205
    Stream size : 7.17 GiB (90%)
    Writing library : x264 core 146 r2538 121396c
    Encoding settings : cabac=1/ref=5/deblock=1: -1: -1/analyse=0x3: 0x113/me=umh/subme=10/psy=1/psy_rd=1.00: 0.00/mixed_ref=1/me_range=32/chroma_me=1/trellis=2/8x8dct=1/cqm=0/deadzone=21, 11/fast_pskip=0/chroma_qp_offset=-2/threads=4/lookahead_threads=1/sliced_threads=0/nr=0/decimate=1/interlaced=0/bluray_compat=0/constrained_intra=0/bframes=9/b_pyramid=2/b_adapt=2/b_bias=0/direct=1/weightb=1/open_gop=0/weightp=2/keyint=230/keyint_min=22/scenecut=40/intra_refresh=0/rc_lookahead=40/rc=2pass/mbtree=0/bitrate=7565/ratetol=1.0/qcomp=0.70/qpmin=0/qpmax=69/qpstep=4/cplxblur=20.0/qblur=0.5/vbv_maxrate=62500/vbv_bufsize=78125/nal_hrd=none/filler=0/ip_ratio=1.40/pb_ratio=1.30/aq=1: 0.80
    Default : Yes
    Forced : No
    Audio
    ID : 2
    Format : AC-3
    Format/Info : Audio Coding 3
    Mode extension : CM (complete main)
    Format settings, Endianness : Big
    Codec ID : A_AC3
    Duration : 2h 18mn
    Bit rate mode : Constant
    Bit rate : 640 Kbps
    Channel count : 6 channels
    Channel positions : Front: L C R, Side: L R, LFE
    Sampling rate : 48.0 KHz
    Bit depth : 16 bits
    Compression mode : Lossy
    Stream size : 635 MiB (8%)
    Title : Дубляж
    Language : Russian
    Default : Yes
    Forced : No

    Скриншоты

    Релиз подготовил: SuperMin
    Залил: SuperMin

    Онлайн видео Годзилла


    Размер скачиваемого торрента: 7.95 GB (8538496574 Bytes)

    Годзилла/Godzilla (1998) BDRip 1080 от SuperMin | Mastered in 4K
    загрузка...
    Рейтинг →
     (голосов: 1, оценка 4/5, голосовать можно 1 раз )

    Другие торренты по теме:

  • OST - Годзилла / Godzilla Soundtrack (1998) MP3
  • Годзилла / Godzilla (1998) HDTVRip | D, А | Open Matte
  • Годзилла / Godzilla (1998) BDRip 1080p от Freeisland
  • Годзилла против Биолланте / Gojira vs. Biorante (1989) BDRip-AVC от MediaClub
  • Годзилла против Биолланте / Gojira vs. Biorante (1989) BDRip 720p от MediaClub скачать бесплатно через торрент
  • Годзилла против космической Годзиллы / Gojira VS Supesugojira (1994) WEBRip-AVC | P
  • Годзилла / Godzilla (2014) HD 1080p | Трейлер скачать через торрент бесплатно
  • Годзилла / Godzilla (2014) DCPrip | Трейлер


    • Комментарии (0):

      Информация

      Информация

        Посетители, находящиеся в группе Гости, не могут оставлять комментарии в данной новости.

        ↓ Меню



        ↓ Опрос

        А Вы добавили сайт в закладки?
        Да
        Не


        Top 10 за месяц (Фильмы)